<?xml version="1.0" standalone="no"?>
<!DOCTYPE svg PUBLIC "-//W3C//DTD SVG 1.1//EN" "http://www.w3.org/Graphics/SVG/1.1/DTD/svg11.dtd">
<svg xmlns="http://www.w3.org/2000/svg"><defs><font id="flaticon" horiz-adv-x="512"><font-face units-per-em="512" ascent="448" descent="-64" x-height="240" cap-height="480"/><missing-glyph horiz-adv-x="512"/><glyph unicode="&#xE000;" glyph-name="add156" horiz-adv-x="427" d="M80.839111111111 191.54488888889C102.08711111111 174.16533333333 128.05688888889 163.55555555556 156.44444444444 163.55555555556s54.357333333333 10.609777777778 75.605333333333 27.989333333333 C251.10755555556 190.03733333333 267.43466666667 179.14311111111 276.59377777778 163.55555555556h31.260444444444c-8.7608888888889 24.462222222222 -28.416 43.719111111111 -53.162666666667 52.081777777778C273.00977777778 240.24177777778 284.44444444444 271.36 284.44444444444 305.77777777778c0 78.563555555556 -57.315555555556 142.22222222222 -128 142.22222222222 S28.444444444444 384.34133333333 28.444444444444 305.77777777778c0 -34.417777777778 11.463111111111 -65.564444444444 29.752888888889 -90.140444444444C24.462222222222 204.25955555556 0 172.68622222222 0 135.11111111111v-56.888888888889c0 -47.132444444444 38.200888888889 -85.333333333333 85.333333333333 -85.333333333333h142.22222222222v28.444444444444H85.333333333333c-31.431111111111 0 -56.888888888889 25.457777777778 -56.888888888889 56.888888888889v56.888888888889 C28.444444444444 165.00622222222 51.569777777778 189.21244444444 80.839111111111 191.54488888889zM56.888888888889 305.77777777778c0 62.833777777778 44.572444444444 113.77777777778 99.555555555556 113.77777777778C211.42755555556 419.55555555556 256 368.61155555556 256 305.77777777778c0 -62.833777777778 -44.572444444444 -113.77777777778 -99.555555555556 -113.77777777778C101.46133333333 192 56.888888888889 242.944 56.888888888889 305.77777777778zM384 78.222222222222H341.33333333333v42.666666666667c0 7.8506666666667 -6.3715555555556 14.222222222222 -14.222222222222 14.222222222222c-7.8506666666667 0 -14.222222222222 -6.3715555555556 -14.222222222222 -14.222222222222V78.222222222222H270.22222222222C262.37155555556 78.222222222222 256 71.850666666667 256 64 C256 56.149333333333 262.37155555556 49.777777777778 270.22222222222 49.777777777778H312.88888888889v-42.666666666667c0 -7.8506666666667 6.3715555555556 -14.222222222222 14.222222222222 -14.222222222222c7.8506666666667 0 14.222222222222 6.3431111111111 14.222222222222 14.222222222222V49.777777777778h42.666666666667c7.8506666666667 0 14.222222222222 6.3715555555556 14.222222222222 14.222222222222 C398.22222222222 71.850666666667 391.85066666667 78.222222222222 384 78.222222222222z"/><glyph unicode="&#xE001;" glyph-name="analogic3" horiz-adv-x="546" d="M341.33333333333 345.6H307.2v-34.133333333333h34.133333333333V345.6zM307.2 38.4h34.133333333333v34.133333333333H307.2V38.4zM512 413.86666666667H273.06666666667C272.00853333333 413.86666666667 271.1552 413.35466666667 270.1312 413.2864 C263.23626666667 433.42506666667 244.36053333333 448 221.86666666667 448h-170.66666666667C22.9376 448 0 425.09653333333 0 396.8v-409.6C0 -41.0624 22.9376 -64 51.2 -64h170.66666666667c22.493866666667 0 41.3696 14.574933333333 48.264533333333 34.747733333333 C271.1552 -29.354666666667 272.00853333333 -29.866666666667 273.06666666667 -29.866666666667V362.66666666667C273.06666666667 372.08746666667 280.71253333333 379.73333333333 290.13333333333 379.73333333333h204.8C504.35413333333 379.73333333333 512 372.08746666667 512 362.66666666667v-341.33333333333c0 -9.4549333333333 -7.6458666666667 -17.066666666667 -17.066666666667 -17.066666666667H341.33333333333v-34.133333333333h170.66666666667 c18.8416 0 34.133333333333 15.291733333333 34.133333333333 34.133333333333V379.73333333333C546.13333333333 398.57493333333 530.8416 413.86666666667 512 413.86666666667zM238.93333333333 -12.8C238.93333333333 -22.2208 231.28746666667 -29.866666666667 221.86666666667 -29.866666666667h-170.66666666667C41.7792 -29.866666666667 34.133333333333 -22.2208 34.133333333333 -12.8V4.2666666666667h204.8V-12.8zM238.93333333333 38.4 H34.133333333333V345.6h204.8V38.4zM238.93333333333 379.73333333333H34.133333333333V396.8C34.133333333333 406.2208 41.7792 413.86666666667 51.2 413.86666666667h170.66666666667C231.28746666667 413.86666666667 238.93333333333 406.2208 238.93333333333 396.8V379.73333333333zM443.73333333333 38.4h34.133333333333v34.133333333333h-34.133333333333V38.4zM375.46666666667 38.4h34.133333333333v34.133333333333h-34.133333333333V38.4zM477.86666666667 345.6h-34.133333333333v-34.133333333333h34.133333333333V345.6zM409.6 345.6h-34.133333333333v-34.133333333333h34.133333333333V345.6z"/><glyph unicode="&#xE002;" glyph-name="bag32" horiz-adv-x="546" d="M477.86666666667 379.73333333333h-102.4V430.93333333333C375.46666666667 440.35413333333 367.8208 448 358.4 448h-170.66666666667C178.31253333333 448 170.66666666667 440.35413333333 170.66666666667 430.93333333333V379.73333333333H68.266666666667 C30.549333333333 379.73333333333 0 349.14986666667 0 311.46666666667v-307.2c0 -37.717333333333 30.549333333333 -68.266666666667 68.266666666667 -68.266666666667h409.6c37.717333333333 0 68.266666666667 30.549333333333 68.266666666667 68.266666666667V311.46666666667C546.13333333333 349.14986666667 515.584 379.73333333333 477.86666666667 379.73333333333zM204.8 396.76586666667C204.8 406.2208 212.44586666667 413.86666666667 221.86666666667 413.86666666667h102.4 C333.68746666667 413.86666666667 341.33333333333 406.2208 341.33333333333 396.76586666667V379.73333333333H204.8V396.76586666667zM34.133333333333 4.2666666666667v204.8h68.266666666667v-238.93333333333H68.266666666667C49.425066666667 -29.866666666667 34.133333333333 -14.574933333333 34.133333333333 4.2666666666667zM409.6 -29.866666666667H136.53333333333v238.93333333333h273.06666666667V-29.866666666667zM512 4.2666666666667c0 -18.8416 -15.291733333333 -34.133333333333 -34.133333333333 -34.133333333333h-34.133333333333 v238.93333333333h68.266666666667V4.2666666666667zM512 243.2H34.133333333333V311.46666666667c0 18.8416 15.291733333333 34.133333333333 34.133333333333 34.133333333333h409.6c18.8416 0 34.133333333333 -15.291733333333 34.133333333333 -34.133333333333V243.2z"/><glyph unicode="&#xE003;" glyph-name="bookmark31" horiz-adv-x="320" d="M0 448v-512l160 128l160 -128V448H0zM288 0l-128 112L32 0V416h256V0z"/><glyph unicode="&#xE004;" glyph-name="chat58" horiz-adv-x="512" d="M475.85129646985 448h-311.90253045923C144.0829740706 448 127.96001249609 432.22892845986 127.96001249609 412.81099656357v-250.57769447048c0 -19.449921899406 16.122961574508 -35.189003436426 35.988753514527 -35.189003436426 h92.802999062793L319.90003124024 63.960012496095l63.148266166823 63.052296157451h92.802999062793c19.865791940019 0 35.988753514527 15.73908153702 35.988753514527 35.189003436426V412.81099656357C511.84004998438 432.22892845986 495.71708840987 448 475.85129646985 448zM479.85004686036 170.87060293658 c0 -6.0141205873165 -5.1184004998438 -10.908591065292 -11.420431115276 -10.908591065292h-100.64054982818L319.90003124024 112.13695720087L272.01099656357 159.99400187441H171.3704467354C165.06841611996 159.99400187441 159.95001562012 164.85648234927 159.95001562012 170.87060293658V405.13339581381C159.95001562012 411.14751640112 165.06841611996 416.00999687598 171.3704467354 416.00999687598 h297.05916900968C474.73164636051 416.00999687598 479.85004686036 411.14751640112 479.85004686036 405.13339581381V170.87060293658zM351.89003436426 42.942580443611c0 -6.0461105904405 -5.1184004998438 -10.908591065292 -11.420431115276 -10.908591065292H239.86104342393L191.94001874414 -15.82305529522l-47.921024679788 47.825054670415H43.4104342393 C37.108403623868 32.001999375195 31.990003124024 36.896469853171 31.990003124024 42.942580443611V277.14139331459C31.990003124024 283.18750390503 37.108403623868 288.04998437988 43.4104342393 288.04998437988H95.970009372071V320.03998750391H35.988753514527C16.122961574508 320.03998750391 0 304.26891596376 0 284.81899406435v-250.57769447048 c0 -19.417931896282 16.122961574508 -35.189003436426 35.988753514527 -35.189003436426h92.802999062793L191.94001874414 -64l63.148266166823 63.084286160575h92.802999062793c19.865791940019 0 35.988753514527 15.771071540144 35.988753514527 35.189003436426V64.119962511715h-31.990003124024V42.942580443611z"/><glyph unicode="&#xE005;" glyph-name="circle95" horiz-adv-x="512" d="M256 448C114.624 448 0 333.376 0 192c0 -141.408 114.624 -256 256 -256s256 114.592 256 256 C512 333.376 397.376 448 256 448zM256 -32c-123.712 0 -224 100.288 -224 224c0 123.712 100.288 224 224 224c123.712 0 224 -100.288 224 -224C480 68.288 379.712 -32 256 -32z"/><glyph unicode="&#xE006;" glyph-name="closet" horiz-adv-x="480" d="M464 448h-448C7.168 448 0 440.832 0 432v-480C0 -56.832 7.168 -64 16 -64h448 c8.832 0 16 7.168 16 16v480C480 440.832 472.832 448 464 448zM32 399.968C32 408.832 39.168 416 48 416H224v-352H32V399.968zM448 -16 c0 -8.864 -7.168 -16 -16 -16h-384C39.168 -32 32 -24.864 32 -16V32h416V-16zM448 64H256V416h176c8.832 0 16 -7.168 16 -16V64zM288 160h32V256H288V160 zM160 160h32V256H160V160z"/><glyph unicode="&#xE007;" glyph-name="cloud262" horiz-adv-x="683" d="M426.66666666667 448C331.43466666667 448 248.53333333333 395.904 204.416 318.72C200.23466666667 319.01866666667 196.26666666667 320 192 320 C85.973333333333 320 0 234.02666666667 0 128C0 21.973333333333 85.973333333333 -64 192 -64H426.66666666667c141.39733333333 0 256 114.60266666667 256 256C682.66666666667 333.39733333333 568.064 448 426.66666666667 448zM469.33333333333 -17.024V-21.333333333333H170.66666666667v2.1333333333333 C98.389333333333 -8.7466666666667 42.666666666667 52.821333333333 42.666666666667 128C42.666666666667 210.47466666667 109.52533333333 277.33333333333 192 277.33333333333c12.928 0 25.216 -2.1333333333333 37.162666666667 -5.248C260.864 350.16533333333 337.23733333333 405.33333333333 426.66666666667 405.33333333333c117.80266666667 0 213.33333333333 -95.488 213.33333333333 -213.33333333333 C640 88.789333333333 566.69866666667 2.7306666666667 469.33333333333 -17.024z"/><glyph unicode="&#xE008;" glyph-name="cold11" horiz-adv-x="512" d="M191.87603873789 -64h32.085973133396v32.309903155264H191.87603873789V-64zM287.97400812246 32.289909403311H255.85604498594v-32.309903155264h32.085973133396 V32.289909403311zM192.00399875039 32.289909403311H159.88603561387v-32.309903155264h32.085973133396V32.289909403311zM319.90003124024 448C248.49834426742 448 186.34176819744 408.94020618557 153.2641049672 351.10228053733C150.12908466104 351.29422055608 147.15401437051 352.02999062793 143.95501405811 352.02999062793 C64.459856294908 352.02999062793 0 287.57013433302 0 208.07497656982C0 128.57981880662 64.459856294908 64.119962511715 143.95501405811 64.119962511715H319.90003124024c106.01487035301 0 191.94001874414 85.925148391128 191.94001874414 191.94001874414C511.84004998438 362.07485160887 425.91490159325 448 319.90003124024 448zM351.89003436426 99.340955951265V96.109965635739H127.96001249609v1.5995001562012 C73.768947203999 105.54701655733 31.990003124024 151.70859106529 31.990003124024 208.07497656982C31.990003124024 269.91165260856 82.118338019369 320.03998750391 143.95501405811 320.03998750391c9.6929709465792 0 18.906091846298 -1.5995001562012 27.895282724149 -3.9347703842549C195.61886910341 374.64692283661 252.84898469228 416.00999687598 319.90003124024 416.00999687598c88.32439862543 0 159.95001562012 -71.593626991565 159.95001562012 -159.95001562012 C479.85004686036 178.67616369884 424.89122149328 114.15232739769 351.89003436426 99.340955951265zM351.82605435801 -0.019993751952568h32.085973133396v32.309903155264h-32.085973133396V-0.019993751952568zM287.84604810997 -64h32.085973133396v32.309903155264H287.84604810997V-64z"/><glyph unicode="&#xE009;" glyph-name="comment46" horiz-adv-x="546" d="M494.73543915767 448h-443.55591096895C22.928428628549 448 0 425.07157137145 0 396.82047181128v-341.1968545915C0 27.372517659603 22.928428628549 4.4440890310543 51.179528188725 4.4440890310543h153.33386645342 L272.9574836732 -64L341.40157270425 4.4440890310543H494.73543915767c28.251099560176 0 51.179528188725 22.928428628549 51.179528188725 51.179528188725v341.1968545915C545.91496734639 425.07157137145 522.98653871785 448 494.73543915767 448zM511.79528188725 55.623617219779c0 -9.4170331867253 -7.6428095428495 -17.059842729575 -17.059842729575 -17.059842729575H324.30761028922 L272.9574836732 -12.820471811275l-51.35012661602 51.35012661602H51.179528188725c-9.4170331867253 0 -17.059842729575 7.6428095428495 -17.059842729575 17.059842729575v341.1968545915C34.11968545915 406.237504998 41.762495001999 413.88031454085 51.179528188725 413.88031454085h443.55591096895C504.1524723444 413.88031454085 511.79528188725 406.237504998 511.79528188725 396.82047181128V55.623617219779z"/><glyph unicode="&#xE00A;" glyph-name="cross84" horiz-adv-x="512" d="M281.42051795679 192l225.30490771212 225.30490771212c7.032765774789 6.9961367863786 7.032765774789 18.424381170411 0 25.420517956789 c-7.032765774789 7.032765774789 -18.424381170411 7.032765774789 -25.420517956789 0L256 217.42051795679L30.695092287881 442.72542566891c-7.032765774789 7.032765774789 -18.424381170411 7.032765774789 -25.420517956789 0c-7.032765774789 -7.032765774789 -7.032765774789 -18.424381170411 0 -25.420517956789 l225.30490771212 -225.30490771212L5.2745743310917 -33.304907712119c-7.032765774789 -7.032765774789 -7.032765774789 -18.387752182 0 -25.420517956789c7.032765774789 -7.032765774789 18.424381170411 -7.032765774789 25.420517956789 0l225.30490771212 225.30490771212l225.30490771212 -225.30490771212 c7.032765774789 -7.032765774789 18.424381170411 -7.032765774789 25.420517956789 0c7.032765774789 6.9961367863786 7.032765774789 18.387752182 0 25.420517956789L281.42051795679 192z"/><glyph unicode="&#xE00B;" glyph-name="delete70" horiz-adv-x="455" d="M83.456 191.54488888889C105.35822222222 174.16533333333 132.18133333333 163.55555555556 161.47911111111 163.55555555556S217.6 174.16533333333 239.53066666667 191.54488888889 C259.21422222222 190.03733333333 276.05333333333 179.14311111111 285.49688888889 163.55555555556h32.284444444444c-9.0453333333333 24.462222222222 -29.326222222222 43.719111111111 -54.897777777778 52.081777777778c18.887111111111 24.604444444444 30.72 55.751111111111 30.72 90.140444444444 c0 78.563555555556 -59.164444444444 142.22222222222 -132.12444444444 142.22222222222C88.519111111111 448 29.354666666667 384.34133333333 29.354666666667 305.77777777778c0 -34.417777777778 11.832888888889 -65.564444444444 30.72 -90.140444444444C25.258666666667 204.25955555556 0 172.68622222222 0 135.11111111111v-56.888888888889 c0 -47.132444444444 39.424 -85.333333333333 88.092444444444 -85.333333333333H227.55555555556l3.6693333333333 28.444444444444H88.092444444444c-32.426666666667 0 -58.737777777778 25.457777777778 -58.737777777778 56.888888888889v56.888888888889C29.354666666667 165.00622222222 53.219555555556 189.21244444444 83.456 191.54488888889zM58.737777777778 305.77777777778 c0 62.833777777778 46.023111111111 113.77777777778 102.76977777778 113.77777777778C218.25422222222 419.55555555556 264.24888888889 368.61155555556 264.24888888889 305.77777777778c0 -62.833777777778 -45.994666666667 -113.77777777778 -102.76977777778 -113.77777777778C104.73244444444 192 58.737777777778 242.944 58.737777777778 305.77777777778zM342.92622222222 78.222222222222 l34.616888888889 33.536c5.4897777777778 5.3475555555556 5.4897777777778 13.966222222222 0 19.313777777778c-5.5182222222222 5.3191111111111 -14.421333333333 5.3191111111111 -19.939555555556 0l-34.616888888889 -33.536l-34.616888888889 33.536 c-5.4897777777778 5.3191111111111 -14.421333333333 5.3191111111111 -19.939555555556 0c-5.4897777777778 -5.3475555555556 -5.4897777777778 -13.966222222222 0 -19.313777777778L303.04711111111 78.222222222222l-34.616888888889 -33.536c-5.4897777777778 -5.3191111111111 -5.4897777777778 -13.966222222222 0 -19.313777777778 c5.4897777777778 -5.3191111111111 14.421333333333 -5.3191111111111 19.939555555556 0l34.616888888889 33.536l34.616888888889 -33.536c5.4897777777778 -5.3191111111111 14.421333333333 -5.3191111111111 19.939555555556 0c5.4897777777778 5.3475555555556 5.4897777777778 13.994666666667 0 19.313777777778 L342.92622222222 78.222222222222z"/><glyph unicode="&#xE00C;" glyph-name="design22" horiz-adv-x="512" d="M112 224h160C280.832 224 288 231.168 288 240C288 248.832 280.832 256 272 256h-160 C103.168 256 96 248.832 96 240C96 231.168 103.168 224 112 224zM112 128h160C280.832 128 288 135.168 288 144C288 152.832 280.832 160 272 160h-160C103.168 160 96 152.832 96 144 C96 135.168 103.168 128 112 128zM448 448H64C28.64 448 0 419.36 0 384v-384c0 -35.328 28.64 -64 64 -64h384c35.36 0 64 28.672 64 64V384C512 419.36 483.36 448 448 448zM352 -32H64c-17.664 0 -32 14.336 -32 32V320h320V-32zM480 0c0 -17.664 -14.336 -32 -32 -32h-64V320h96V0zM480 352H32V384c0 17.664 14.336 32 32 32h384 c17.664 0 32 -14.336 32 -32V352zM112 32h160C280.832 32 288 39.168 288 48C288 56.832 280.832 64 272 64h-160C103.168 64 96 56.832 96 48 C96 39.168 103.168 32 112 32z"/><glyph unicode="&#xE00D;" glyph-name="down67" horiz-adv-x="448" d="M442.44114285714 283.86742857143c-6.9485714285714 6.9485714285714 -18.212571428571 6.9485714285714 -25.161142857143 0l-193.536 -211.38285714286L30.354285714286 283.79428571429c-6.9485714285714 6.9485714285714 -18.212571428571 6.9485714285714 -25.161142857143 0s-6.9485714285714 -18.212571428571 0 -25.234285714286l201.43542857143 -220.01371428571 c0.87771428571429 -2.1211428571429 2.1211428571429 -4.096 3.8034285714286 -5.7782857142857c3.6571428571429 -3.6571428571429 8.4845714285714 -5.2662857142857 13.238857142857 -5.0468571428571c4.8274285714286 -0.21942857142857 9.728 1.3897142857143 13.385142857143 5.0468571428571c1.7554285714286 1.7554285714286 3.072 3.7302857142857 3.8765714285714 5.9245714285714l201.36228571429 220.01371428571 C449.31657142857 265.58171428571 449.31657142857 276.84571428571 442.44114285714 283.86742857143z"/><glyph unicode="&#xE00E;" glyph-name="download149" horiz-adv-x="591" d="M571.07692307692 132.92307692308C560.20676923077 132.92307692308 551.38461538462 124.10092307692 551.38461538462 113.23076923077V-24.615384615385H39.384615384615V113.23076923077C39.384615384615 124.10092307692 30.562461538462 132.92307692308 19.692307692308 132.92307692308 C8.8221538461538 132.92307692308 0 124.10092307692 0 113.23076923077v-157.53846153846C0 -55.177846153846 8.8221538461538 -64 19.692307692308 -64h551.38461538462c10.870153846154 0 19.692307692308 8.8221538461538 19.692307692308 19.692307692308v157.53846153846C590.76923076923 124.10092307692 581.94707692308 132.92307692308 571.07692307692 132.92307692308zM281.28492307692 59.864615384615 C285.184 55.965538461538 290.26461538462 54.035692307692 295.38461538462 54.035692307692c5.12 0 10.200615384615 1.9298461538462 14.099692307692 5.7895384615385l118.03569230769 137.728c7.7587692307692 7.7587692307692 7.7587692307692 20.361846153846 0 28.120615384615 c-7.7587692307692 7.7587692307692 -20.322461538462 7.7587692307692 -28.120615384615 0L315.07692307692 127.25169230769V428.30769230769C315.07692307692 439.17784615385 306.25476923077 448 295.38461538462 448C284.51446153846 448 275.69230769231 439.17784615385 275.69230769231 428.30769230769v-301.056L191.33046153846 225.67384615385 c-7.7587692307692 7.7587692307692 -20.322461538462 7.7587692307692 -28.120615384615 0c-7.7587692307692 -7.7587692307692 -7.7587692307692 -20.361846153846 0 -28.120615384615L281.28492307692 59.864615384615z"/><glyph unicode="&#xE00F;" glyph-name="electrical18" horiz-adv-x="512" d="M319.35587922736 82.907545164718c-0.41607801462774 1.9203600675127 -1.1522160405076 3.6486841282741 -2.27242607989 5.2169781834094 c-0.32006001125211 0.54410201912859 -0.73613802587985 0.96018003375633 -1.1202100393824 1.4402700506345c-0.70413202475464 0.80015002813027 -1.4082640495093 1.5682940551353 -2.27242607989 2.2404200787648c-0.5761080202538 0.51209601800338 -0.99218603488154 1.1842220416328 -1.6323060573858 1.6323060573858 c-0.96018003375633 0.64012002250422 -2.0483840720135 0.76814402700506 -3.0725761080203 1.1522160405076c-0.064012002250422 0.032006001125211 -0.12802400450084 0.064012002250422 -0.22404200787648 0.096018003375633c-1.6323060573858 0.5761080202538 -3.2326061136463 0.89616803150591 -4.8969181721573 0.8641620303807 C303.160842658 95.613927611427 302.52072263549 95.933987622679 301.78458460961 95.933987622679H233.73982621742l52.169781834094 101.10695755454c4.4168281552791 8.5456023004313 1.7923360630118 19.523660686379 -5.8570982059136 24.452584859661C272.40307557667 226.42245421016 262.60923923236 223.47790210664 258.19241107708 214.90029380509 l-64.012002250422 -124.05526036132c-1.5682940551353 -3.040570106895 -1.9523660686379 -6.369194223917 -1.8563480652622 -9.6338063386885C192.29205476027 80.763143089329 192.03600675127 80.379071075827 192.03600675127 79.930987060074c0 -0.80015002813027 0.38407201350253 -1.5042820528849 0.51209601800338 -2.27242607989 c0.064012002250422 -0.22404200787648 0.096018003375633 -0.44808401575295 0.16003000562605 -0.67212602362943c0.41607801462774 -1.9203600675127 1.1522160405076 -3.6806901293993 2.3044320810152 -5.2809901856598c0.32006001125211 -0.51209601800338 0.70413202475464 -0.92817403263112 1.056198037132 -1.3762580483841 c0.73613802587985 -0.83215602925549 1.4402700506345 -1.6003000562605 2.3364380821404 -2.3044320810152c0.5761080202538 -0.51209601800338 0.96018003375633 -1.1842220416328 1.6323060573858 -1.6003000562605c0.96018003375633 -0.60811402137901 2.0163780708883 -0.76814402700506 3.0085641057698 -1.1202100393824 c0.096018003375633 -0.032006001125211 0.22404200787648 -0.096018003375633 0.32006001125211 -0.12802400450084c1.6003000562605 -0.54410201912859 3.1685941113959 -0.8641620303807 4.7688941676564 -0.83215602925549C208.90316934425 64.216040507595 209.54328936676 63.927986497468 210.31143339376 63.927986497468h68.012752391073l-52.169781834094 -101.07495155342 c-4.4168281552791 -8.5456023004313 -1.7923360630118 -19.523660686379 5.8570982059136 -24.452584859661c7.6494342689254 -4.9289241732825 17.44327061324 -2.0163780708883 21.860098768519 6.5612302306682l64.012002250422 124.05526036132c1.5682940551353 3.040570106895 1.9523660686379 6.369194223917 1.8563480652622 9.6338063386885 C319.80396324311 79.066825029693 320.06001125211 79.450897043196 320.06001125211 79.930987060074c0 0.80015002813027 -0.38407201350253 1.4722760517597 -0.51209601800338 2.2404200787648C319.48390323186 82.42745514784 319.41989122961 82.651497155717 319.35587922736 82.907545164718zM320.06001125211 448 C248.62261674064 448 186.43495655435 408.92067262612 153.34075139089 351.02181659061C150.20416328062 351.24585859849 147.22760517597 351.98199662437 144.02700506345 351.98199662437C64.4920922673 351.98199662437 0 287.48990435707 0 207.95499156092c0 -74.061886603738 56.106519972495 -134.36119272364 128.02400450084 -142.42670500719v32.006001125211 C73.805838594737 105.37575795462 32.006001125211 151.5604175783 32.006001125211 207.95499156092C32.006001125211 269.82259173595 82.159404888417 319.97599549916 144.02700506345 319.97599549916c9.6978183409389 0 18.915546665 -1.6003000562605 27.909232981184 -3.936738138401C195.71669688067 374.61023941989 252.97543289367 415.99399887479 320.06001125211 415.99399887479c88.368569106708 0 160.03000562605 -71.629430518222 160.03000562605 -160.03000562605 c0 -65.580296305557 -39.559417390761 -121.81484028255 -96.018003375633 -146.52347315122v-34.374445208477c74.541976620616 26.404950928299 128.02400450084 97.298243420641 128.02400450084 180.86591235857C512.09601800338 361.99987497656 426.12789898106 448 320.06001125211 448z"/><glyph unicode="&#xE010;" glyph-name="email75" horiz-adv-x="629" d="M628.56404736276 428.35614331847c0.078732892511149 5.0389051207135 -1.7714900815008 10.117176687683 -5.5900353682916 13.975088420729 c-4.0941104105797 4.1334768568353 -9.5660464401046 5.7868675995694 -14.959249577118 5.4325695832693H20.588651391665C15.234814700907 448.11809933877 9.7628786713824 446.42534214978 5.6687682608027 442.3312317392C1.8108565277564 438.47332000615 -0.039366446255574 433.39504843918 0.039366446255574 428.35614331847 C0.039366446255574 428.27741042596 0 428.15931108719 0 428.08057819468v-472.39735506689c0 -10.865139166539 8.7787175149931 -19.683223127787 19.643856681532 -19.683223127787H608.99892357374c10.865139166539 0 19.643856681532 8.8180839612487 19.643856681532 19.683223127787v472.39735506689 C628.64278025527 428.15931108719 628.56404736276 428.27741042596 628.56404736276 428.35614331847zM553.33476856835 408.39735506689l-239.03306166385 -191.71459326465l-239.03306166385 191.71459326465H553.33476856835zM569.71121021067 -24.633553744426H58.931570044595 c-10.865139166539 0 -19.643856681532 8.8180839612487 -19.643856681532 19.683223127787V388.0055359065l259.97601107181 -208.52406581578c0.39366446255574 -0.47239735506689 0.55113024757804 -1.0235276026449 0.94479471013378 -1.4565585114563C304.10579732431 174.12763339997 309.22343533754 172.31677687221 314.30170690451 172.43487621098 c5.0782715669691 -0.11809933876672 10.195909580194 1.6927571889897 14.093187759496 5.5900353682916c0.43303090881132 0.43303090881132 0.59049669383362 0.98416115638936 0.94479471013378 1.4565585114563l259.97601107181 208.52406581578v-392.95586652314 C589.3550668922 -15.854836229433 580.53698293095 -24.633553744426 569.71121021067 -24.633553744426z"/><glyph unicode="&#xE011;" glyph-name="file72" horiz-adv-x="416" d="M408.256 320l7.584 7.584L295.584 447.84L288 440.256V448H16C7.168 448 0 440.832 0 432v-480 C0 -56.864 7.168 -64 16 -64h384c8.832 0 16 7.168 16 16V320H408.256zM376.576 320H288V408.576L376.576 320zM384 -16 c0 -8.864 -7.168 -16 -16 -16h-320C39.168 -32 32 -24.832 32 -16v416C32 408.832 39.168 416 48 416H256v-128h128V-16z"/><glyph unicode="&#xE012;" glyph-name="folder174" horiz-adv-x="480" d="M416 384H256c0 35.36 -28.64 64 -64 64H64C28.64 448 0 419.328 0 384v-384c0 -35.328 28.64 -64 64 -64 h352c35.36 0 64 28.672 64 64V320C480 355.328 451.36 384 416 384zM448 0c0 -17.664 -14.336 -32 -32 -32H64c-17.664 0 -32 14.336 -32 32V256h416V0zM32 288V384 c0 17.664 14.336 32 32 32h128c17.664 0 32 -14.336 32 -32v-32h192c17.664 0 32 -14.336 32 -32v-32H32z"/><glyph unicode="&#xE013;" glyph-name="folder175" horiz-adv-x="512" d="M480 384H224V416c0 17.664 -14.336 32 -32 32H32C14.336 448 0 433.664 0 416v-448 c0 -17.696 14.336 -32 32 -32h448c17.664 0 32 14.336 32 32V352C512 369.696 497.664 384 480 384zM480 -16C480 -24.832 472.832 -32 464 -32h-416 C39.168 -32 32 -24.832 32 -16V288h448V-16zM464 320H32V400C32 408.832 39.168 416 48 416h128C184.832 416 192 408.832 192 400V352h272 C472.832 352 480 344.832 480 336C480 327.168 472.832 320 464 320z"/><glyph unicode="&#xE014;" glyph-name="heart284" horiz-adv-x="512" d="M367.88503592627 448C319.90003124024 448 255.92002499219 365.43380193689 255.92002499219 365.43380193689S191.94001874414 448 143.95501405811 448C46.769384567323 448 0 399.15126522962 0 298.12683536395 c0 -94.914339268978 255.92002499219 -362.12683536395 255.92002499219 -362.12683536395s255.92002499219 267.21249609497 255.92002499219 362.12683536395C511.84004998438 399.15126522962 465.07066541706 448 367.88503592627 448zM31.990003124024 293.71221493283C31.990003124024 378.90159325211 58.925585754452 414.98631677601 143.95501405811 414.98631677601 c25.240112464855 0 111.96501093408 -82.534208059981 111.96501093408 -82.534208059981s86.724898469228 82.534208059981 111.96501093408 82.534208059981c85.029428303655 0 111.96501093408 -36.052733520775 111.96501093408 -121.27410184317c0 -80.070977819431 -223.93002186817 -308.1277100906 -223.93002186817 -308.1277100906S31.990003124024 213.6412371134 31.990003124024 293.71221493283z"/><glyph unicode="&#xE015;" glyph-name="label26" horiz-adv-x="352" d="M176 448L0 304V-32c0 -17.664 14.336 -32 32 -32h288c17.664 0 32 14.336 32 32V304L176 448zM320 -16c0 -8.832 -7.168 -16 -16 -16h-256C39.168 -32 32 -24.832 32 -16V288l144 128L320 288V-16zM112 288c0 -35.36 28.64 -64 64 -64 c35.36 0 64 28.672 64 64c0 35.328 -28.64 64 -64 64C140.64 352 112 323.328 112 288zM208 288c0 -17.696 -14.336 -32 -32 -32c-17.664 0 -32 14.304 -32 32 c0 17.664 14.336 32 32 32C193.664 320 208 305.696 208 288zM96 0h160v32H96V0z"/><glyph unicode="&#xE016;" glyph-name="left161" horiz-adv-x="299" d="M51.438456420492 192l241.69261477046 221.29607451763c7.9627411842981 7.9201596806387 7.9627411842981 20.822355289421 0 28.74251497006 c-7.9627411842981 7.9201596806387 -20.864936793081 7.9201596806387 -28.827677977379 0L12.731869594145 211.71523619428C10.262142381903 210.73586161011 7.9627411842981 209.24550898204 5.9614105123087 207.24417831005c-4.2155688622754 -4.2155688622754 -6.0465735196274 -9.79374584165 -5.7910844976713 -15.329341317365 c-0.21290751829674 -5.4504324683965 1.6606786427146 -10.986027944112 5.8336660013307 -15.159015302728c1.95874916833 -1.95874916833 4.2155688622754 -3.4065202927478 6.6427145708583 -4.4284763805722l251.65668662675 -230.40851630073c7.9627411842981 -7.9627411842981 20.864936793081 -7.9627411842981 28.827677977379 0 c7.9627411842981 7.9627411842981 7.9627411842981 20.822355289421 0 28.785096473719L51.438456420492 192z"/><glyph unicode="&#xE017;" glyph-name="lifeline14" horiz-adv-x="585" d="M439.07668119774 448c-54.884585149718 0 -128.06403201601 -52.981919531194 -146.35889373258 -70.910884013435C274.42292574859 395.01808046881 201.2434788823 448 146.35889373258 448 C45.334667333667 448 0 368.89301793754 0 271.34481526478c0 -105.96383906239 292.71778746516 -335.34481526478 292.71778746516 -335.34481526478s292.71778746516 229.38097620239 292.71778746516 335.34481526478C585.43557493032 368.89301793754 540.10090759666 448 439.07668119774 448zM292.71778746516 -27.959122418352 c-113.31837347245 94.035589223183 -256.12806403202 236.58915171872 -256.12806403202 295.24247838205C36.589723433145 310.64217823197 47.273922675624 411.41027656685 146.35889373258 411.41027656685c38.675337668834 0 101.86579003788 -43.139283927678 120.30701064818 -61.580504537983L292.71778746516 323.85106839134l26.051883084399 25.978703637533C337.21089115987 368.27099263918 400.40134352891 411.41027656685 439.07668119774 411.41027656685 c99.084971056957 0 109.76917029944 -100.76809833488 109.76917029944 -144.12692060316c0 -0.65861502179661 -0.25612806403202 -1.4635889373258 -0.29271778746516 -2.1587936825556h-17.819195311942c-0.07317944686629 0 -0.10976917029944 0.036589723433145 -0.18294861716573 0.036589723433145h-102.81712284714l-45.700564567998 44.822411205603 C380.49653398128 313.09368970199 378.33774029872 315.91109840635 375.04466518974 317.740584578c-4.4273565354106 2.4881011934539 -9.4767383691846 2.9271778746516 -14.050453798328 1.6831272779247C359.42085328378 319.0578146216 357.99385406989 318.1796612592 356.60344457943 317.37468734367 C356.0180090045 317.00879010934 355.32280425927 316.86243121561 354.77395840778 316.45994425784C353.96898449225 315.83791895948 353.38354891732 314.88658615022 352.65175444865 314.11820195812C351.77360108626 313.16686914886 350.74908883013 312.39848495676 350.0538840849 311.2276138069L291.69327520903 193.62824269278 L257.48188379904 256.63574644465C253.96927034946 261.79489744872 247.82219681269 264.53912670621 241.34581576503 264.97820338741C241.01650825413 264.97820338741 240.7603801901 265.16115200457 240.4310726792 265.16115200457H237.76002286858c-0.18294861716573 0 -0.32930751089831 0 -0.51225612806403 0H162.0558850854 C153.38412063174 265.16115200457 146.35889373258 256.96505395555 146.35889373258 246.866290288c0 -10.135353390981 7.0252268991639 -18.294861716573 15.696991352819 -18.294861716573h66.007861073394l45.041949546202 -82.912313299507c3.6589723433145 -5.4152790681055 10.245122561281 -8.1960980490245 17.050811119846 -8.3790466661902 c0.36589723433145 -0.036589723433145 0.69520474522976 -0.036589723433145 1.0611019795612 -0.07317944686629c1.0976917029944 0.036589723433145 2.1222039591224 0.036589723433145 3.1833059386836 0.21953834059887c4.53712570571 0.4024869577646 8.6717644536554 2.4149217465876 11.781890945473 5.8543557493032 c0.4024869577646 0.4024869577646 0.76838419209605 0.80497391552919 1.1342814264275 1.2440505967269c0.36589723433145 0.51225612806403 0.91474308582863 0.84156363896234 1.2440505967269 1.3904094904595l62.385478453512 125.72228971629l33.73572500536 -33.077109983563 c2.5612806403202 -4.9762023869077 7.317944686629 -8.4156363896234 13.062531265633 -9.4035589223183c0.69520474522976 -0.14635889373258 1.3904094904595 -0.36589723433145 2.1222039591224 -0.43907668119774c0.32930751089831 0 0.58543557493032 -0.18294861716573 0.91474308582863 -0.18294861716573H475.66640463089v-0.036589723433145h60.336453941256 C498.60816122347 159.23390266562 385.80204387908 49.318373472451 292.71778746516 -27.959122418352z"/><glyph unicode="&#xE018;" glyph-name="location37" horiz-adv-x="384" d="M336 -32H219.392C272.384 31.552 384 175.072 384 256c0 106.048 -85.952 192 -192 192 C85.952 448 0 362.048 0 256c0 -80.928 111.616 -224.448 164.576 -288H48C39.168 -32 32 -39.168 32 -48C32 -56.832 39.168 -64 48 -64h288 c8.832 0 16 7.168 16 16C352 -39.168 344.832 -32 336 -32zM192 416c88.352 0 160 -72.544 160 -162.016S192 -16 192 -16S32 164.512 32 253.984 S103.648 416 192 416z"/><glyph unicode="&#xE019;" glyph-name="logout12" horiz-adv-x="545" d="M255.47096860209 4.2962469168722l-204.37677488167 -34.131057929471c-9.4201719885341 0 -17.031397906806 7.6453569762016 -17.031397906806 17.065528964736v409.57269515366 c0 9.3860409306046 7.6112259182721 17.065528964736 17.031397906806 17.065528964736l204.37677488167 -34.131057929471c9.4201719885341 0 17.031397906806 -7.6453569762016 17.031397906806 -17.065528964736V413.86894207053L34.062795813612 448C15.256582894474 448 0 432.7092860476 0 413.8348110126v-443.70375308313 c0 -18.874475034998 15.256582894474 -34.131057929471 34.062795813612 -34.131057929471L272.5023665089 -29.834811012599v51.162455836278C272.5023665089 11.907472835144 264.89114059063 4.2962469168722 255.47096860209 4.2962469168722zM545.0047330178 192.15358976068c0.034131057929471 3.037664155723 -0.9556696220252 5.9729351376575 -2.5598293447104 8.6692887140857 c-0.10239317378841 0.20478634757683 -0.2389174055063 0.34131057929471 -0.34131057929471 0.54609692687154c-0.61435904273048 0.9556696220252 -1.0580627958136 2.0137324178388 -1.9113392440504 2.8670088660756c-1.6382907806146 1.6382907806146 -3.5837610825945 2.8670088660756 -5.5974935004333 3.6861542563829l-165.53563095794 132.87220851943 c-6.4849010065996 6.4849010065996 -17.031397906806 6.4849010065996 -23.516298913406 0c-6.4849010065996 -6.519032064529 -6.4849010065996 -17.065528964736 0 -23.584561029265L480.18985400973 209.0825944937H85.156989534031C75.736817545497 209.0825944937 68.125591627225 201.4372375175 68.125591627225 192.01706552896 c0 -9.4543030464636 7.6112259182721 -17.065528964736 17.031397906806 -17.065528964736h395.0328644757l-134.68115458969 -108.09306046264c-6.4849010065996 -6.519032064529 -6.4849010065996 -17.065528964736 0 -23.584561029265c6.4849010065996 -6.519032064529 17.031397906806 -6.519032064529 23.516298913406 0l165.56976201587 132.87220851943 c2.0478634757683 0.81914539030731 3.9250716618892 2.0137324178388 5.5974935004333 3.6861542563829c3.3107126191587 3.3107126191587 4.8807412839144 7.6794880341311 4.8124791680555 12.014132391174c0 0.068262115858943 0.034131057929471 0.10239317378841 0.034131057929471 0.17065528964736 C545.03886407573 192.05119658689 545.0047330178 192.08532764482 545.0047330178 192.15358976068z"/><glyph unicode="&#xE01A;" glyph-name="music223" horiz-adv-x="475" d="M18.281796757838 301.70906234378h329.07234164108c10.091551810326 0 18.281796757838 8.1902449475112 18.281796757838 18.281796757838c0 10.091551810326 -8.1902449475112 18.281796757838 -18.281796757838 18.281796757838h-329.07234164108 C8.1902449475112 338.27265585946 0 330.11897450546 0 320.02742269514C0 309.93587088481 8.1902449475112 301.70906234378 18.281796757838 301.70906234378zM438.7631221881 448v-276.20138541741c-40.07369849318 28.592730129258 -105.92473041491 27.349567949725 -165.41369706491 -8.0805541669642 c-74.626294365493 -44.461329715061 -110.16610726273 -125.12061701064 -79.379561522531 -180.14882525173c30.786545740199 -55.028208241091 116.19910019282 -63.547525530244 190.82539455831 -19.086195815182c56.417624794687 33.638506034421 90.348639577233 87.898878811683 90.348639577233 136.16282225237H475.32671570378V448H438.7631221881zM365.01435406699 -1.8418910233522c-57.295151039063 -35.027922588017 -119.85545954438 -33.931014782547 -139.7094908234 2.4863243590659c-19.854031279012 36.417339141613 10.493751338999 94.334071270442 67.825465971578 129.36199385846c57.295151039063 35.027922588017 119.85545954438 33.931014782547 139.7094908234 -2.4863243590659 C452.69385131757 91.102763693494 422.30950510605 33.186031564665 365.01435406699 -1.8418910233522zM18.281796757838 411.39984289081h329.07234164108c10.091551810326 0 18.281796757838 8.1902449475112 18.281796757838 18.281796757838c0 10.091551810326 -8.1902449475112 18.281796757838 -18.281796757838 18.281796757838h-329.07234164108 C8.1902449475112 447.96343640648 0 439.80975505249 0 429.71820324216C0 419.62665143184 8.1902449475112 411.39984289081 18.281796757838 411.39984289081zM18.281796757838 192.01828179676h219.38156109405c10.091551810326 0 18.281796757838 8.1902449475112 18.281796757838 18.281796757838c0 10.091551810326 -8.1902449475112 18.281796757838 -18.281796757838 18.281796757838h-219.38156109405 C8.1902449475112 228.58187531243 0 220.42819395844 0 210.33664214811C0 200.24509033778 8.1902449475112 192.01828179676 18.281796757838 192.01828179676zM127.97257730486 118.89109476541h-109.69078054703C8.1902449475112 118.89109476541 0 110.73741341141 0 100.64586160109c0 -10.091551810326 8.1902449475112 -18.281796757838 18.281796757838 -18.281796757838h109.69078054703 c10.091551810326 0 18.281796757838 8.1902449475112 18.281796757838 18.281796757838C146.2543740627 110.73741341141 138.06412911519 118.89109476541 127.97257730486 118.89109476541z"/><glyph unicode="&#xE01B;" glyph-name="musical102" horiz-adv-x="546" d="M536.80666444518 447.93175608131L536.80666444518 448L536.39720093302 447.93175608131h-24.636054648451v-5.0841719426858l-307.09763412196 -63.19386871043v-251.85418193935 C171.63345551483 147.55614795068 120.24578473842 145.23585471509 73.874041986005 118.14301899367c-60.941819393535 -35.5892035988 -89.945484838387 -100.07970676441 -64.83172275908 -144.09703432189c25.113762079307 -44.017327557481 94.893168943685 -50.841719426858 155.80086637787 -15.286637787404 c48.043718760413 28.048250583139 75.750749750083 73.976407864045 73.225724758414 113.79673442186h0.71656114628457V349.18280573142l272.97567477507 57.904965011663v-211.04431856048c-33.030056647784 19.790736421193 -84.417727424192 17.436321226258 -130.78947017661 -9.6565144951683 c-60.941819393535 -35.555081639454 -89.945484838387 -100.07970676441 -64.83172275908 -144.09703432189c25.113762079307 -44.017327557481 94.893168943685 -50.841719426858 155.80086637787 -15.286637787404c48.043718760413 28.048250583139 75.750749750083 74.010529823392 73.225724758414 113.79673442186h0.71656114628457v307.09763412196H536.80666444518zM147.3044985005 -10.76974341886c-44.563278907031 -26.137420859713 -93.221192935688 -25.318493835388 -108.64431856048 1.8425858047318c-15.423125624792 27.195201599467 8.1892702432522 70.427724091969 52.752549150283 96.59926691103s93.221192935688 25.318493835388 108.64431856048 -1.8767077640786 C215.48017327557 58.634321892702 191.86777740753 15.4017994002 147.3044985005 -10.76974341886zM454.40213262246 57.474175274908c-44.563278907031 -26.137420859713 -93.221192935688 -25.318493835388 -108.64431856048 1.8767077640786 c-15.423125624792 27.16107964012 8.1892702432522 70.427724091969 52.752549150283 96.565144951683c44.563278907031 26.17154281906 93.221192935688 25.318493835388 108.64431856048 -1.8425858047318C522.57780739753 126.87824058647 498.99953348884 83.645718093969 454.40213262246 57.474175274908z"/><glyph unicode="&#xE01C;" glyph-name="notebook47" horiz-adv-x="512" d="M96 448H32C14.336 448 0 433.664 0 416v-448c0 -17.664 14.336 -32 32 -32h64c17.664 0 32 14.336 32 32 V416C128 433.664 113.664 448 96 448zM96 -16C96 -24.832 88.832 -32 80 -32h-32C39.168 -32 32 -24.832 32 -16V192h64V-16zM96 224H32V400 C32 408.832 39.168 416 48 416h32C88.832 416 96 408.832 96 400V224zM480 416h-32V448h-32v-32h-64V448h-32v-32H256V448H224v-32H192C174.336 416 160 401.664 160 384v-416 c0 -17.664 14.336 -32 32 -32h288c17.664 0 32 14.336 32 32V384C512 401.664 497.664 416 480 416zM480 -16c0 -8.832 -7.168 -16 -16 -16h-256 C199.168 -32 192 -24.832 192 -16v384C192 376.832 199.168 384 208 384h256C472.832 384 480 376.832 480 368V-16zM432 192h-192C231.168 192 224 184.832 224 176 c0 -8.832 7.168 -16 16 -16h192c8.832 0 16 7.168 16 16C448 184.832 440.832 192 432 192zM432 96h-192C231.168 96 224 88.832 224 80 C224 71.168 231.168 64 240 64h192c8.832 0 16 7.168 16 16C448 88.832 440.832 96 432 96zM432 287.968h-192C231.168 287.968 224 280.832 224 272 C224 263.168 231.168 256 240 256h192C440.832 256 448 263.168 448 272C448 280.832 440.832 287.968 432 287.968z"/><glyph unicode="&#xE01D;" glyph-name="paper124" horiz-adv-x="384" d="M352 384H286.4C278.976 420.512 246.72 448 208 448h-32C137.312 448 105.024 420.512 97.6 384H32 C14.336 384 0 369.696 0 352.032v-384c0 -17.664 14.336 -32 32 -32h320c17.664 0 32 14.336 32 32v384C384 369.696 369.664 384 352 384zM176 416h32 c20.864 0 38.464 -13.408 45.056 -32H130.944C137.536 402.624 155.136 416 176 416zM352 -15.968c0 -8.864 -7.168 -16 -16 -16h-288 c-8.832 0 -16 7.168 -16 16V32h320V-15.968zM352 64H32V336c0 8.832 7.168 16 16 16H96v-96h32v96h128v-96h32v96h48 c8.832 0 16 -7.168 16 -16V64z"/><glyph unicode="&#xE01E;" glyph-name="person308" horiz-adv-x="352" d="M286.528 186.592C307.136 214.272 320 249.28 320 288c0 88.352 -64.48 160 -144 160S32 376.384 32 288 c0 -38.72 12.864 -73.76 33.472 -101.44C27.52 173.792 0 138.272 0 96v-64c0 -53.024 42.976 -96 96 -96h160c53.024 0 96 42.976 96 96v64 C352 138.272 324.48 173.792 286.528 186.592zM64 288c0 70.688 50.144 128 112 128S288 358.688 288 288c0 -70.688 -50.144 -128 -112 -128S64 217.312 64 288zM320 32 c0 -35.328 -28.64 -64 -64 -64H96c-35.36 0 -64 28.672 -64 64v64c0 33.632 26.016 60.864 58.944 63.488C114.848 139.936 144.064 128 176 128 s61.152 11.936 85.056 31.488C293.984 156.864 320 129.632 320 96V32z"/><glyph unicode="&#xE01F;" glyph-name="photo186" horiz-adv-x="546" d="M273.06666666667 277.36746666667c-75.400533333333 0 -136.53333333333 -61.1328 -136.53333333333 -136.53333333333c0 -75.400533333333 61.1328 -136.53333333333 136.53333333333 -136.53333333333c75.400533333333 0 136.53333333333 61.1328 136.53333333333 136.53333333333 C409.6 216.20053333333 348.4672 277.36746666667 273.06666666667 277.36746666667zM273.06666666667 38.434133333333c-56.558933333333 0 -102.4 45.841066666667 -102.4 102.4c0 56.558933333333 45.841066666667 102.4 102.4 102.4s102.4 -45.841066666667 102.4 -102.4 C375.46666666667 84.2752 329.6256 38.434133333333 273.06666666667 38.434133333333zM477.86666666667 379.73333333333h-68.266666666667c0 37.6832 -30.549333333333 68.266666666667 -68.266666666667 68.266666666667H204.8C167.08266666667 448 136.53333333333 417.45066666667 136.53333333333 379.73333333333H68.266666666667C30.583466666667 379.73333333333 0 349.184 0 311.46666666667v-307.2 c0 -37.6832 30.583466666667 -68.266666666667 68.266666666667 -68.266666666667h409.6c37.717333333333 0 68.266666666667 30.583466666667 68.266666666667 68.266666666667V311.46666666667C546.13333333333 349.184 515.584 379.73333333333 477.86666666667 379.73333333333zM204.8 413.86666666667h136.53333333333c18.8416 0 34.133333333333 -15.291733333333 34.133333333333 -34.133333333333H170.66666666667C170.66666666667 398.57493333333 185.9584 413.86666666667 204.8 413.86666666667zM512 4.2666666666667c0 -18.8416 -15.291733333333 -34.133333333333 -34.133333333333 -34.133333333333H68.266666666667c-18.8416 0 -34.133333333333 15.2576 -34.133333333333 34.133333333333V209.06666666667h68.266666666667V243.2H34.133333333333V277.33333333333h68.266666666667V311.46666666667H34.133333333333c0 18.8416 15.291733333333 34.133333333333 34.133333333333 34.133333333333h409.6c18.8416 0 34.133333333333 -15.291733333333 34.133333333333 -34.133333333333V4.2666666666667z"/><glyph unicode="&#xE020;" glyph-name="photo187" horiz-adv-x="585" d="M548.57142857143 374.85714285714h-91.428571428571L438.85714285714 411.42857142857c0 0 -16.384 36.571428571429 -36.571428571429 36.571428571429H182.85714285714C162.66971428571 448 146.28571428571 411.42857142857 146.28571428571 411.42857142857L128 374.85714285714H36.571428571429 C16.384 374.85714285714 0 358.47314285714 0 338.28571428571v-365.71428571429c0 -20.187428571429 16.384 -36.571428571429 36.571428571429 -36.571428571429h512c20.187428571429 0 36.571428571429 16.384 36.571428571429 36.571428571429V338.28571428571C585.14285714286 358.47314285714 568.75885714286 374.85714285714 548.57142857143 374.85714285714zM548.57142857143 -9.1428571428571 c0 -10.093714285714 -8.192 -18.285714285714 -18.285714285714 -18.285714285714h-475.42857142857C44.763428571429 -27.428571428571 36.571428571429 -19.236571428571 36.571428571429 -9.1428571428571v329.14285714286C36.571428571429 330.09371428571 44.763428571429 338.28571428571 54.857142857143 338.28571428571H146.28571428571L175.54285714286 388.57142857143C175.54285714286 388.57142857143 188.63542857143 411.42857142857 204.8 411.42857142857h175.54285714286 c16.164571428571 0 29.257142857143 -22.857142857143 29.257142857143 -22.857142857143L438.85714285714 338.28571428571h91.428571428571C540.37942857143 338.28571428571 548.57142857143 330.09371428571 548.57142857143 320V-9.1428571428571zM292.57142857143 301.71428571429C211.78514285714 301.71428571429 146.28571428571 236.21485714286 146.28571428571 155.42857142857c0 -80.786285714286 65.499428571429 -146.28571428571 146.28571428571 -146.28571428571 c80.786285714286 0 146.28571428571 65.499428571429 146.28571428571 146.28571428571C438.85714285714 236.21485714286 373.35771428571 301.71428571429 292.57142857143 301.71428571429zM292.57142857143 45.714285714286c-60.598857142857 0 -109.71428571429 49.115428571429 -109.71428571429 109.71428571429c0 60.598857142857 49.115428571429 109.71428571429 109.71428571429 109.71428571429c60.598857142857 0 109.71428571429 -49.115428571429 109.71428571429 -109.71428571429 C402.28571428571 94.829714285714 353.17028571429 45.714285714286 292.57142857143 45.714285714286z"/><glyph unicode="&#xE021;" glyph-name="placeholder22" horiz-adv-x="384" d="M192 368C130.144 368 80 317.856 80 256c0 -61.856 50.144 -112 112 -112 S304 194.144 304 256C304 317.856 253.856 368 192 368zM192 176C147.808 176 112 211.808 112 256c0 44.192 35.808 80 80 80 c44.192 0 80 -35.808 80 -80C272 211.808 236.192 176 192 176zM192 448C85.952 448 0 362.048 0 256c0 -106.048 192 -320 192 -320s192 213.952 192 320 C384 362.048 298.048 448 192 448zM32 256c0 88.384 71.648 160 160 160c88.352 0 160 -71.616 160 -160c0 -88.352 -160 -272 -160 -272S32 167.648 32 256z"/><glyph unicode="&#xE022;" glyph-name="portfolio27" horiz-adv-x="546" d="M477.86666666667 379.73333333333h-102.4V430.93333333333C375.46666666667 440.35413333333 367.8208 448 358.4 448h-170.66666666667C178.31253333333 448 170.66666666667 440.35413333333 170.66666666667 430.93333333333V379.73333333333H68.266666666667 C30.549333333333 379.73333333333 0 349.14986666667 0 311.46666666667v-307.2c0 -37.717333333333 30.549333333333 -68.266666666667 68.266666666667 -68.266666666667h409.6c37.717333333333 0 68.266666666667 30.549333333333 68.266666666667 68.266666666667V311.46666666667C546.13333333333 349.14986666667 515.584 379.73333333333 477.86666666667 379.73333333333zM204.8 396.76586666667C204.8 406.2208 212.44586666667 413.86666666667 221.86666666667 413.86666666667h102.4 C333.68746666667 413.86666666667 341.33333333333 406.2208 341.33333333333 396.76586666667V379.73333333333H204.8V396.76586666667zM68.266666666667 345.56586666667h409.6c18.8416 0 34.133333333333 -15.291733333333 34.133333333333 -34.133333333333v-68.266666666667H34.133333333333V311.46666666667C34.133333333333 330.30826666667 49.425066666667 345.56586666667 68.266666666667 345.56586666667zM477.86666666667 -29.866666666667H68.266666666667 c-18.8416 0 -34.133333333333 15.291733333333 -34.133333333333 34.133333333333v204.8h477.86666666667v-204.8C512 -14.574933333333 496.70826666667 -29.866666666667 477.86666666667 -29.866666666667z"/><glyph unicode="&#xE023;" glyph-name="quit2" horiz-adv-x="427" d="M80.839111111111 191.54488888889C102.08711111111 174.16533333333 128.05688888889 163.55555555556 156.44444444444 163.55555555556s54.357333333333 10.609777777778 75.605333333333 27.989333333333 C251.10755555556 190.03733333333 267.43466666667 179.14311111111 276.59377777778 163.55555555556h31.260444444444c-8.7608888888889 24.462222222222 -28.416 43.719111111111 -53.162666666667 52.081777777778C273.00977777778 240.24177777778 284.44444444444 271.36 284.44444444444 305.77777777778c0 78.563555555556 -57.315555555556 142.22222222222 -128 142.22222222222 S28.444444444444 384.34133333333 28.444444444444 305.77777777778c0 -34.417777777778 11.463111111111 -65.564444444444 29.752888888889 -90.140444444444C24.462222222222 204.25955555556 0 172.68622222222 0 135.11111111111v-56.888888888889c0 -47.132444444444 38.200888888889 -85.333333333333 85.333333333333 -85.333333333333h142.22222222222v28.444444444444H85.333333333333c-31.431111111111 0 -56.888888888889 25.457777777778 -56.888888888889 56.888888888889v56.888888888889 C28.444444444444 165.00622222222 51.569777777778 189.21244444444 80.839111111111 191.54488888889zM56.888888888889 305.77777777778c0 62.833777777778 44.572444444444 113.77777777778 99.555555555556 113.77777777778C211.42755555556 419.55555555556 256 368.61155555556 256 305.77777777778c0 -62.833777777778 -44.572444444444 -113.77777777778 -99.555555555556 -113.77777777778C101.46133333333 192 56.888888888889 242.944 56.888888888889 305.77777777778zM384 78.222222222222h-113.77777777778C262.37155555556 78.222222222222 256 71.850666666667 256 64C256 56.149333333333 262.37155555556 49.777777777778 270.22222222222 49.777777777778h113.77777777778c7.8506666666667 0 14.222222222222 6.3715555555556 14.222222222222 14.222222222222C398.22222222222 71.850666666667 391.85066666667 78.222222222222 384 78.222222222222z"/><glyph unicode="&#xE024;" glyph-name="rain31" horiz-adv-x="512" d="M255.85604498594 -64h32.085973133396v96.289909403311H255.85604498594V-64zM351.82605435801 -64h32.085973133396v96.289909403311 h-32.085973133396V-64zM319.90003124024 448C248.49834426742 448 186.34176819744 408.94020618557 153.2641049672 351.10228053733C150.12908466104 351.29422055608 147.15401437051 352.02999062793 143.95501405811 352.02999062793C64.459856294908 352.02999062793 0 287.57013433302 0 208.07497656982C0 128.57981880662 64.459856294908 64.119962511715 143.95501405811 64.119962511715h159.95001562012 v1.0556701030928C309.21537019681 64.759762574196 314.46173070915 64.119962511715 319.90003124024 64.119962511715c106.01487035301 0 191.94001874414 85.925148391128 191.94001874414 191.94001874414C511.84004998438 362.07485160887 425.91490159325 448 319.90003124024 448zM319.90003124024 96.109965635739c-5.4702905342081 0 -10.684661043424 0.83174008122462 -15.995001562012 1.375570134333V96.109965635739h-159.95001562012 C82.118338019369 96.109965635739 31.990003124024 146.23830053108 31.990003124024 208.07497656982C31.990003124024 269.91165260856 82.118338019369 320.03998750391 143.95501405811 320.03998750391c9.6929709465792 0 18.906091846298 -1.5995001562012 27.895282724149 -3.9347703842549C195.61886910341 374.64692283661 252.84898469228 416.00999687598 319.90003124024 416.00999687598c88.32439862543 0 159.95001562012 -71.593626991565 159.95001562012 -159.95001562012 C479.85004686036 167.73558263043 408.22442986567 96.109965635739 319.90003124024 96.109965635739zM222.04261168385 128.09996875976h3.1350203061543C224.60181193377 128.51583880037 223.96201187129 128.83573883162 223.41818181818 129.25160887223C223.00231177757 128.83573883162 222.45848172446 128.51583880037 222.04261168385 128.09996875976zM159.88603561387 -64h32.085973133396v96.289909403311H159.88603561387V-64z"/><glyph unicode="&#xE025;" glyph-name="right163" horiz-adv-x="299" d="M293.13107119095 207.24417831005C291.12974051896 209.24550898204 288.83033932136 210.73586161011 286.36061210912 211.71523619428L34.789088489687 442.03858948769 c-7.9627411842981 7.9201596806387 -20.864936793081 7.9201596806387 -28.827677977379 0c-7.9627411842981 -7.9627411842981 -7.9627411842981 -20.822355289421 0 -28.74251497006l241.69261477046 -221.29607451763l-241.69261477046 -221.25349301397c-7.9627411842981 -7.9627411842981 -7.9627411842981 -20.822355289421 0 -28.785096473719 c7.9627411842981 -7.9627411842981 20.864936793081 -7.9627411842981 28.827677977379 0l251.65668662675 230.40851630073c2.4271457085828 0.979374584165 4.6839654025283 2.4271457085828 6.6427145708583 4.4284763805722C297.30405854957 180.97139055223 299.13506320692 186.50698602794 298.92215568862 191.95741849634 C299.17764471058 197.4504324684 297.34664005323 203.02860944777 293.13107119095 207.24417831005z"/><glyph unicode="&#xE026;" glyph-name="shape6" horiz-adv-x="512" d="M416 128h-64V256h64c53.024 0 96 42.976 96 96c0 53.024 -42.976 96 -96 96s-96 -42.976 -96 -96v-64H192V352 c0 53.024 -42.976 96 -96 96S0 405.024 0 352c0 -53.024 42.976 -96 96 -96h64v-128H96c-53.024 0 -96 -42.976 -96 -96C0 -21.024 42.976 -64 96 -64c53.024 0 96 43.008 96 96h0 v64h128v-64h0c0 -53.024 42.976 -96 96 -96c53.024 0 96 43.008 96 96.032C512 85.024 469.024 128 416 128zM352 352c0 35.36 28.64 64 64 64 c35.36 0 64 -28.64 64 -64c0 -35.36 -28.64 -64 -64 -64h-64V352zM160 32c0 -35.36 -28.64 -64 -64 -64s-64 28.672 -64 64c0 35.328 28.64 64 64 64h64V32zM160 288H96 C60.64 288 32 316.64 32 352c0 35.36 28.64 64 64 64s64 -28.64 64 -64V288zM320 128H192V256h128V128zM416 -32c-35.36 0 -64 28.672 -64 64v64h64c35.36 0 64 -28.672 64 -64 C480 -3.36 451.36 -32 416 -32z"/><glyph unicode="&#xE027;" glyph-name="share29" horiz-adv-x="585" d="M475.42857142857 155.42857142857c-42.057142857143 0 -78.189714285714 -23.954285714286 -96.585142857143 -58.697142857143l-162.01142857143 71.936 C218.44114285714 176.20114285714 219.42857142857 183.99085714286 219.42857142857 192c0 5.3394285714286 -0.84114285714286 10.496 -1.5725714285714 15.652571428571l164.53485714286 73.069714285714C401.73714285714 249.52685714286 436.04114285714 228.57142857143 475.42857142857 228.57142857143c60.598857142857 0 109.71428571429 49.115428571429 109.71428571429 109.71428571429 c0 60.562285714286 -49.115428571429 109.71428571429 -109.71428571429 109.71428571429c-60.598857142857 0 -109.71428571429 -49.115428571429 -109.71428571429 -109.71428571429c0 -8.0091428571429 0.98742857142857 -15.798857142857 2.5965714285714 -23.332571428571l-162.01142857143 -71.972571428571C187.904 277.76 151.77142857143 301.71428571429 109.71428571429 301.71428571429 C49.115428571429 301.71428571429 0 252.59885714286 0 192c0 -60.598857142857 49.115428571429 -109.71428571429 109.71428571429 -109.71428571429c39.424 0 73.691428571429 20.955428571429 93.037714285714 52.150857142857l164.53485714286 -73.069714285714C366.55542857143 56.210285714286 365.71428571429 51.090285714286 365.71428571429 45.714285714286 c0 -60.598857142857 49.115428571429 -109.71428571429 109.71428571429 -109.71428571429c60.598857142857 0 109.71428571429 49.115428571429 109.71428571429 109.71428571429C585.14285714286 106.31314285714 536.02742857143 155.42857142857 475.42857142857 155.42857142857zM475.42857142857 411.42857142857c40.411428571429 0 73.142857142857 -32.768 73.142857142857 -73.142857142857c0 -40.411428571429 -32.731428571429 -73.142857142857 -73.142857142857 -73.142857142857 c-40.411428571429 0 -73.142857142857 32.731428571429 -73.142857142857 73.142857142857C402.28571428571 378.69714285714 435.01714285714 411.42857142857 475.42857142857 411.42857142857zM109.71428571429 118.85714285714C69.302857142857 118.85714285714 36.571428571429 151.62514285714 36.571428571429 192c0 40.411428571429 32.731428571429 73.142857142857 73.142857142857 73.142857142857c40.411428571429 0 73.142857142857 -32.768 73.142857142857 -73.142857142857 C182.85714285714 151.62514285714 150.12571428571 118.85714285714 109.71428571429 118.85714285714zM475.42857142857 -27.392c-40.411428571429 0 -73.142857142857 32.731428571429 -73.142857142857 73.106285714286s32.731428571429 73.142857142857 73.142857142857 73.142857142857c40.411428571429 0 73.142857142857 -32.768 73.142857142857 -73.142857142857S515.84 -27.392 475.42857142857 -27.392z"/><glyph unicode="&#xE028;" glyph-name="speech102" horiz-adv-x="512" d="M256 448C114.624 448 0 347.712 0 224c0 -70.688 37.536 -133.664 96 -174.688V-64l131.072 65.536 C236.576 0.57600000000002 246.208 0 256 0c141.376 0 256 100.288 256 224C512 347.712 397.376 448 256 448zM256 32c-14.656 0 -28.96 1.28 -42.848 3.584L224 31.968L128 -16 V64l11.872 -3.968C75.296 93.728 32 154.432 32 224c0 106.048 100.288 192 224 192s224 -85.952 224 -192C480 117.952 379.712 32 256 32z"/><glyph unicode="&#xE029;" glyph-name="tag49" horiz-adv-x="352" d="M176 448L0 304V-32c0 -17.664 14.336 -32 32 -32h288c17.664 0 32 14.304 32 32V304L176 448zM320 -16c0 -8.832 -7.168 -16 -16 -16h-256C39.168 -32 32 -24.832 32 -16V288l144 128L320 288V-16zM128 0h32V160H128V0zM112 288c0 -35.36 28.64 -64 64 -64 s64 28.672 64 64c0 35.328 -28.64 64 -64 64S112 323.36 112 288zM208 288c0 -17.664 -14.336 -32 -32 -32c-17.664 0 -32 14.336 -32 32s14.336 32 32 32 C193.664 320 208 305.664 208 288zM192 0h32V160H192V0z"/><glyph unicode="&#xE02A;" glyph-name="two327" horiz-adv-x="512" d="M384 352H32C14.336 352 0 337.664 0 320v-352c0 -17.664 14.336 -32 32 -32h352 c17.664 0 32 14.336 32 32V320C416 337.664 401.664 352 384 352zM384 -16c0 -8.864 -7.168 -16 -16 -16h-320C39.168 -32 32 -24.832 32 -16v320 C32 312.832 39.168 320 48 320h320C376.832 320 384 312.832 384 304V-16zM480 448H160C142.336 448 128 433.664 128 416v-32h32V400C160 408.832 167.168 416 176 416h288 C472.832 416 480 408.832 480 400v-288c0 -8.832 -7.168 -16 -16 -16H448v-32h32c17.664 0 32 14.336 32 32V416C512 433.664 497.664 448 480 448z"/><glyph unicode="&#xE02B;" glyph-name="up119" horiz-adv-x="448" d="M442.44114285714 58.002285714286L241.00571428571 278.016c-0.87771428571429 2.1942857142857 -2.1942857142857 4.1691428571429 -3.8765714285714 5.9245714285714c-3.6571428571429 3.6571428571429 -8.5577142857143 5.2662857142857 -13.385142857143 5.0468571428571c-4.8274285714286 0.21942857142857 -9.6548571428571 -1.3897142857143 -13.312 -5.12c-1.6822857142857 -1.6822857142857 -2.9988571428571 -3.7302857142857 -3.8765714285714 -5.8514285714286 L5.1931428571429 58.075428571429c-6.9485714285714 -6.9485714285714 -6.9485714285714 -18.212571428571 0 -25.234285714286c6.9485714285714 -6.9485714285714 18.212571428571 -6.9485714285714 25.161142857143 0L223.81714285714 244.15085714286l193.46285714286 -211.30971428571c6.9485714285714 -6.9485714285714 18.212571428571 -6.9485714285714 25.161142857143 0 C449.31657142857 39.789714285714 449.31657142857 51.053714285714 442.44114285714 58.002285714286z"/><glyph unicode="&#xE02C;" glyph-name="upload96" horiz-adv-x="591" d="M570.94516650004 132.8776436207c-10.867645927863 0 -19.68776436207 -8.8201184342075 -19.68776436207 -19.68776436207v-137.81435053449H39.375528724141v137.81435053449 c0 10.867645927863 -8.8201184342075 19.68776436207 -19.68776436207 19.68776436207c-10.867645927863 0 -19.68776436207 -8.8201184342075 -19.68776436207 -19.68776436207v-157.50211489656c0 -10.907021456587 8.8201184342075 -19.68776436207 19.68776436207 -19.68776436207h551.25740213797c10.867645927863 0 19.68776436207 8.8201184342075 19.68776436207 19.68776436207v157.50211489656 C590.63293086211 124.0575251865 581.8128124279 132.8776436207 570.94516650004 132.8776436207zM191.28631854187 276.4014458202L275.62870106898 374.80089210182v-300.98654156733c0 -10.867645927863 8.8201184342075 -19.68776436207 19.68776436207 -19.68776436207c10.867645927863 0 19.68776436207 8.8201184342075 19.68776436207 19.68776436207V374.80089210182 l84.342382527109 -98.399446281627c7.7569791586557 -7.7569791586557 20.317772821657 -7.7569791586557 28.114127509036 0c7.7569791586557 7.7569791586557 7.7569791586557 20.317772821657 0 28.074751980312L309.4129047143 442.17242174883C305.51472737061 446.07059909252 300.43528416519 448 295.31646543105 448 C290.19764669692 448 285.1182034915 446.07059909252 281.22002614781 442.17242174883L163.21156656156 304.47619780051c-7.7569791586557 -7.7569791586557 -7.7569791586557 -20.357148350381 0 -28.074751980312C170.96854572022 268.60509113282 183.52933938322 268.60509113282 191.28631854187 276.4014458202z"/><glyph unicode="&#xE02D;" glyph-name="verify5" horiz-adv-x="745" d="M738.03982904428 441.24906792762c-9.0322815313267 8.9857233791034 -23.651541329453 8.9857233791034 -32.68382286078 0l-450.17077384741 -449.28616895517L39.80722015095 206.92188778758 c-9.1253978357734 9.0788396835501 -23.88433209057 9.0788396835501 -32.96317177412 0c-9.1253978357734 -9.0788396835501 -9.1253978357734 -23.837773938347 0 -32.916613621897l230.88187687551 -230.4628535055c0.13967445667 -0.13967445667 0.37246521778667 -0.18623260889333 0.51213967445667 -0.32590706556334 c0.13967445667 -0.13967445667 0.18623260889333 -0.32590706556334 0.27934891334 -0.46558152223334c9.0322815313267 -9.0322815313267 23.651541329453 -9.0322815313267 32.68382286078 0L738.03982904428 408.65836137128C747.02555242339 417.64408475039 747.02555242339 432.26334454851 738.03982904428 441.24906792762z"/><glyph unicode="&#xE02E;" glyph-name="verify6" horiz-adv-x="427" d="M393.04533333333 131.072c-5.5182222222222 5.3191111111111 -14.449777777778 5.3191111111111 -19.968 0l-78.819555555556 -76.202666666667 l-19.968 19.313777777778c-5.5182222222222 5.3191111111111 -14.449777777778 5.3191111111111 -19.968 0c-5.5182222222222 -5.3475555555556 -5.5182222222222 -13.966222222222 0 -19.313777777778l27.306666666667 -26.424888888889 c0.62577777777778 -1.0808888888889 1.1662222222222 -2.1617777777778 2.1048888888889 -3.072c2.9013333333333 -2.7875555555556 6.7413333333333 -4.0391111111111 10.524444444444 -3.8968888888889c3.7831111111111 -0.14222222222222 7.6231111111111 1.1093333333333 10.524444444444 3.8968888888889 c0.93866666666667 0.91022222222222 1.5075555555556 2.0195555555556 2.1048888888889 3.072l86.158222222222 83.285333333333C398.56355555556 117.10577777778 398.56355555556 125.72444444444 393.04533333333 131.072zM83.626666666667 191.54488888889 C105.58577777778 174.16533333333 132.46577777778 163.55555555556 161.84888888889 163.55555555556s56.234666666667 10.609777777778 78.193777777778 27.989333333333C259.75466666667 190.03733333333 276.65066666667 179.14311111111 286.12266666667 163.55555555556h32.341333333333 c-9.0737777777778 24.462222222222 -29.411555555556 43.719111111111 -55.011555555556 52.081777777778C282.39644444444 240.24177777778 294.25777777778 271.36 294.25777777778 305.77777777778c0 78.563555555556 -59.278222222222 142.22222222222 -132.40888888889 142.22222222222S29.411555555556 384.34133333333 29.411555555556 305.77777777778 c0 -34.417777777778 11.832888888889 -65.564444444444 30.776888888889 -90.140444444444C25.315555555556 204.25955555556 0 172.68622222222 0 135.11111111111v-56.888888888889c0 -47.132444444444 39.509333333333 -85.333333333333 88.263111111111 -85.333333333333h132.40888888889v28.444444444444H88.263111111111c-32.512 0 -58.851555555556 25.457777777778 -58.851555555556 56.888888888889 v56.888888888889C29.411555555556 165.00622222222 53.333333333333 189.21244444444 83.626666666667 191.54488888889zM58.851555555556 305.77777777778c0 62.833777777778 46.108444444444 113.77777777778 102.99733333333 113.77777777778c56.888888888889 0 102.99733333333 -50.944 102.99733333333 -113.77777777778c0 -62.833777777778 -46.108444444444 -113.77777777778 -102.99733333333 -113.77777777778 C104.96 192 58.851555555556 242.944 58.851555555556 305.77777777778z"/><glyph unicode="&#xE02F;" glyph-name="wheel29" horiz-adv-x="512" d="M256 448C114.624 448 0 333.376 0 192c0 -141.376 114.624 -256 256 -256c141.376 0 256 114.624 256 256 C512 333.376 397.376 448 256 448zM86.848 338.016l91.072 -90.88c-5.888 -8.416 -10.496 -17.76 -13.504 -27.84l-125.888 25.6 C47.04 279.968 64.064 311.552 86.848 338.016zM256 -32c-123.712 0 -224 100.288 -224 224c0 7.008 0.416 13.92 1.056 20.736l127.488 -25.92 C163.264 136.288 204.736 96 256 96c17.024 0 32.832 4.608 46.624 12.416l93.408 -90.912C357.696 -13.408 309.088 -32 256 -32zM192 192c0 35.36 28.64 64 64 64 s64 -28.64 64 -64s-28.64 -64 -64 -64S192 156.64 192 192zM420.224 40.064l-92.032 89.6c8.128 9.504 14.624 20.448 18.624 32.608l126.144 -25.024 C463.712 100.384 445.216 67.168 420.224 40.064zM351.744 194.592C350.336 246.368 308.128 288 256 288C235.424 288 216.544 281.312 201.024 270.24 L110.048 361.024C149.248 395.008 200 416 256 416c123.712 0 224 -100.288 224 -224c0 -7.648 -0.384 -15.2 -1.152 -22.624L351.744 194.592z"/></font>
</defs>
</svg>
