<?xml version="1.0" standalone="no"?>
<!DOCTYPE svg PUBLIC "-//W3C//DTD SVG 1.1//EN" "http://www.w3.org/Graphics/SVG/1.1/DTD/svg11.dtd">
<svg xmlns="http://www.w3.org/2000/svg"><defs><font id="flaticon" horiz-adv-x="512"><font-face units-per-em="512" ascent="448" descent="-64" x-height="240" cap-height="480"/><missing-glyph horiz-adv-x="512"/><glyph unicode="&#xE000;" glyph-name="add137" horiz-adv-x="512" d="M448 256h-128V384c0 35.344 -28.656 64 -64 64c-35.344 0 -64 -28.656 -64 -64v-128H64 c-35.344 0 -64 -28.656 -64 -64c0 -35.344 28.656 -64 64 -64h128v-128c0 -35.344 28.656 -64 64 -64c35.344 0 64 28.656 64 64v128h128c35.344 0 64 28.656 64 64 C512 227.344 483.344 256 448 256zM448 160H288v-160c0 -17.68 -14.32 -32 -32 -32s-32 14.32 -32 32V160H64c-17.68 0 -32 14.32 -32 32c0 17.68 14.32 32 32 32h160V384 c0 17.68 14.32 32 32 32s32 -14.336 32 -32v-160h160c17.68 0 32 -14.32 32 -32C480 174.32 465.68 160 448 160z"/><glyph unicode="&#xE001;" glyph-name="add139" horiz-adv-x="512" d="M256 448C114.608 448 0 333.392 0 192s114.608 -256 256 -256c141.392 0 256 114.624 256 256 S397.392 448 256 448zM256 -32C132.288 -32 32 68.288 32 192S132.288 416 256 416s224 -100.288 224 -224S379.712 -32 256 -32zM352 208h-80v80c0 8.832 -7.168 16 -16 16 c-8.832 0 -16 -7.168 -16 -16v-80h-80c-8.832 0 -16 -7.168 -16 -16s7.168 -16 16 -16h80v-80c0 -8.832 7.168 -16 16 -16c8.832 0 16 7.168 16 16v80h80 c8.832 0 16 7.168 16 16S360.832 208 352 208z"/><glyph unicode="&#xE002;" glyph-name="add149" horiz-adv-x="512" d="M352 208h-80v80c0 8.832 -7.168 16 -16 16s-16 -7.168 -16 -16v-80h-80c-8.832 0 -16 -7.168 -16 -16 c0 -8.832 7.168 -16 16 -16h80v-80c0 -8.832 7.168 -16 16 -16s16 7.168 16 16v80h80c8.832 0 16 7.168 16 16C368 200.832 360.832 208 352 208zM448 448H64 C28.656 448 0 419.344 0 384v-384c0 -35.344 28.656 -64 64 -64h384c35.344 0 64 28.656 64 64V384C512 419.344 483.344 448 448 448zM480 0c0 -17.68 -14.336 -32 -32 -32H64 c-17.68 0 -32 14.32 -32 32V384c0 17.68 14.32 32 32 32h384c17.664 0 32 -14.336 32 -32V0z"/><glyph unicode="&#xE003;" glyph-name="airplane86" horiz-adv-x="512" d="M499.41888892363 435.14677837872c-19.960108794198 20.008128302123 -55.014349579517 15.318223028105 -75.070497389565 -4.7859442898678l-102.05746084347 -101.83336980648 L132.95001094195 399.29221246131C114.83064995154 403.98211773533 96.567230437365 410.03257573389 74.062087723138 387.49542001438c-11.460655891456 -11.492668896739 -35.326351330228 -35.406383843436 0 -70.796761184231l129.82874292681 -106.29918404352L119.42451620971 126.10923187545l-78.816019007722 19.687998249289 c-11.700753431081 3.025228999281 -19.559946228155 0.65626660830963 -25.562384718792 -5.9544189827117c-3.025228999281 -3.7775346234408 -24.970144121049 -20.056147810048 -9.6839340982274 -35.374370838153l91.653234126364 -71.292962766124l71.276956263482 -91.653234126364 c11.076499828055 -11.092506330697 21.368681026667 -4.1776971894832 35.43839684872 9.1877325163348c8.9156219714259 8.9316284740676 6.9948416544221 13.525494732235 4.3057492106168 26.554787882577l-17.81523744021 78.255791415262l83.89008034514 84.178197392691l106.12311251446 -129.82874292681 c35.326351330228 -35.390377340795 59.192046769 -11.476662394098 70.652702660456 0c22.505142714228 22.553162222153 16.454684715666 40.848594741614 11.78078594429 58.9999687373l-70.156501078563 189.6290367962l101.65729827743 102.00944133554 C514.24091036984 380.62863038109 519.37899771782 415.15465657924 499.41888892363 435.14677837872zM477.76209084941 381.63704004752l-119.28045768593 -119.71263325726l72.125300903492 -198.40060024385c3.553443586457 -11.364616875606 1.3445462219026 -25.434332697658 -3.2493200362647 -30.028198955826 c-13.045299652984 -13.077312658267 -22.361084190452 -6.8667896332885 -27.291087004095 -1.376559227186l-115.32685153344 155.80729671429l-127.65185856754 -128.11604714415l22.969331290837 -85.314659080251c-9.0596804952012 9.0916935004846 -62.02519773658 80.016506705849 -63.305717947916 81.297026917185 c-0.84834464001 0.84834464001 -70.492637634039 52.773439209679 -78.015693875637 60.312501953919l81.825241504361 -22.072967142902l130.08484696908 127.73189108075L95.942976834339 336.22659205302c-4.4338012317504 3.9696126551412 -10.260168193329 15.686372588864 1.6806827773783 27.659236564854 c4.5778597555257 4.5938662581674 18.503517053803 5.9864319879951 29.852127426767 2.4329884015381l197.5362491012 -71.581079813674l120.89711445275 118.72023009348c8.4354268921749 8.4514333948166 24.986150623691 7.5870822521649 32.381154844155 0.17607152905868 C485.70131615969 406.22302810517 486.19751774158 390.08847344234 477.76209084941 381.63704004752z"/><glyph unicode="&#xE004;" glyph-name="alarm31" horiz-adv-x="512" d="M368 208h-96V320c0 8.832 -7.168 16 -16 16c-8.832 0 -16 -7.168 -16 -16v-128 c0 -8.832 7.168 -16 16 -16h112c8.832 0 16 7.168 16 16C384 200.832 376.832 208 368 208zM32 368c0 26.512 21.488 48 48 48l32 0V448H80C35.824 448 0 412.176 0 368v-32 h32V368zM432 448h-32l0 -32l32 0c26.512 0 48 -21.488 48 -48v-32h32V368C512 412.176 476.176 448 432 448zM480 192c0 123.712 -100.288 224 -224 224C132.288 416 32 315.712 32 192 c0 -84.832 47.184 -158.64 116.72 -196.656L96 -64h48l42.96 42.96C208.72 -28.096 231.888 -32 256 -32c24.112 0 47.28 3.92 69.04 10.96L368 -64h48 l-52.72 59.344C432.816 33.36 480 107.152 480 192zM256 0C149.968 0 64 85.952 64 192C64 298.032 149.968 384 256 384s192 -85.952 192 -192 C448 85.952 362.032 0 256 0z"/><glyph unicode="&#xE005;" glyph-name="arrow592" horiz-adv-x="512" d="M475.42857142857 210.28571428571v-201.14285714286c0 -19.876571428571 -16.713142857143 -36.571428571429 -36.571428571429 -36.571428571429L71.936 -28.032 c-19.858285714286 0 -35.968 16.109714285714 -35.968 35.968L36.571428571429 374.85714285714c0 19.876571428571 16.713142857143 36.571428571429 36.571428571429 36.571428571429h201.14285714286V448H73.142857142857C33.408 448 0 407.38742857143 0 367.67085714286v-359.71657142857C0 -31.798857142857 32.201142857143 -64 71.936 -64 h359.71657142857C471.38742857143 -64 512 -30.592 512 9.1428571428571V210.28571428571H475.42857142857zM201.14285714286 246.85714285714c0.018285714285714 10.148571428571 -8.1371428571429 18.304 -18.285714285714 18.285714285714c-10.148571428571 -0.018285714285714 -18.267428571429 -8.1371428571429 -18.285714285714 -18.285714285714v-128 c-0.018285714285714 -10.148571428571 8.1371428571429 -18.304 18.285714285714 -18.285714285714h128c10.148571428571 0.018285714285714 18.267428571429 8.1371428571429 18.285714285714 18.285714285714c0.018285714285714 10.148571428571 -8.1371428571429 18.304 -18.285714285714 18.285714285714h-82.121142857143L499.072 407.47885714286 c7.1497142857143 7.1497142857143 7.1497142857143 18.724571428571 0 25.856c-7.1497142857143 7.1497142857143 -18.724571428571 7.1497142857143 -25.856 0L201.14285714286 161.26171428571V246.85714285714z"/><glyph unicode="&#xE006;" glyph-name="attach8" horiz-adv-x="511" d="M485.40758192332 261.6337545513L225.20396944385 4.3178410794603c-43.114442778611 -42.63925180267 -113.02234596987 -42.63925180267 -156.13678874848 0 c-43.114442778611 42.63925180267 -43.114442778611 111.76126222603 0 154.4005140287L303.26322553009 390.30084957521c28.749054044406 28.420075676447 75.336046262583 28.420075676447 104.08510030699 0c28.749054044406 -28.420075676447 28.749054044406 -74.513600342686 0 -102.93367601913L173.15228100236 55.784679089027 c-14.365388734204 -14.219176126223 -37.668023131291 -14.219176126223 -52.051688441494 0c-14.365388734204 14.200899550225 -14.365388734204 37.247661883344 0 51.466838009567l208.17020061398 205.84907546227l-26.025844220747 25.733419004783L95.093024916113 132.96665952738 c-28.749054044406 -28.420075676447 -28.749054044406 -74.513600342686 0 -102.93367601913c28.749054044406 -28.420075676447 75.336046262583 -28.420075676447 104.08510030699 0l234.19604483473 231.58249446705c43.114442778611 42.63925180267 43.114442778611 111.76126222603 0 154.4005140287 c-43.114442778611 42.63925180267 -113.02234596987 42.63925180267 -156.13678874848 0L30.028414364246 171.56678803455l0.89555222388806 -0.89555222388806c-44.905547226387 -57.096023416863 -40.95780681088 -139.63304062255 12.117369886485 -192.10509031199 c53.075176697366 -52.472049689441 136.50774612694 -56.40151352895 194.26172627972 -11.971157278504l0.89555222388806 -0.89555222388806l273.21653458985 270.18262297423L485.40758192332 261.6337545513z"/><glyph unicode="&#xE007;" glyph-name="attachment15" horiz-adv-x="256" d="M224 384v-320c0 -53.024 -42.976 -96 -96 -96c-53.024 0 -96 42.976 -96 96V352c0 35.344 28.656 64 64 64 c35.344 0 64 -28.656 64 -64v-288c0 -17.68 -14.336 -32 -32 -32c-17.68 0 -32 14.32 -32 32V320H64v-256c0 -35.344 28.656 -64 64 -64c35.344 0 64 28.656 64 64V352 c0 53.024 -42.976 96 -96 96C42.976 448 0 405.024 0 352v-304c7.888 -63.12 62.736 -112 128 -112c65.264 0 120.112 48.88 128 112V384H224z"/><glyph unicode="&#xE008;" glyph-name="audio46" horiz-adv-x="640" d="M298.66666666667 448L106.66666666667 320H42.666666666667C19.093333333333 320 0 300.90666666667 0 277.33333333333v-170.66666666667c0 -23.573333333333 19.093333333333 -42.666666666667 42.666666666667 -42.666666666667h64l192 -128 c23.573333333333 0 42.666666666667 19.114666666667 42.666666666667 42.666666666667V405.33333333333C341.33333333333 428.88533333333 322.24 448 298.66666666667 448zM106.66666666667 128c0 -11.776 -9.5573333333333 -21.333333333333 -21.333333333333 -21.333333333333H64c-11.776 0 -21.333333333333 9.5573333333333 -21.333333333333 21.333333333333V256c0 11.776 9.5573333333333 21.333333333333 21.333333333333 21.333333333333h21.333333333333 c11.776 0 21.333333333333 -9.5573333333333 21.333333333333 -21.333333333333V128zM298.66666666667 -21.333333333333l-149.33333333333 93.333333333333V312L298.66666666667 405.33333333333V-21.333333333333zM542.80533333333 192l89.024 89.024c9.6213333333333 9.6213333333333 10.496 24.298666666667 2.0053333333333 32.810666666667 c-8.512 8.512 -23.189333333333 7.616 -32.810666666667 -2.0053333333333L512 222.80533333333l-89.024 89.024c-9.6213333333333 9.6213333333333 -24.298666666667 10.517333333333 -32.810666666667 2.0053333333333 c-8.512 -8.512 -7.616 -23.189333333333 2.0053333333333 -32.810666666667L481.19466666667 192l-89.024 -89.024c-9.6213333333333 -9.6213333333333 -10.517333333333 -24.298666666667 -2.0053333333333 -32.810666666667 c8.512 -8.512 23.189333333333 -7.616 32.810666666667 2.0053333333333L512 161.19466666667l89.024 -89.024c9.6213333333333 -9.6 24.298666666667 -10.496 32.810666666667 -2.0053333333333 c8.512 8.512 7.616 23.210666666667 -2.0053333333333 32.810666666667L542.80533333333 192z"/><glyph unicode="&#xE009;" glyph-name="back44" horiz-adv-x="512" d="M368 208H198.624l65.936 65.936c6.256 6.256 6.256 16.384 0 22.624 c-6.256 6.256 -16.384 6.256 -22.624 0l-90.512 -90.512C147.6 202.224 146.4 196.96 147.28 192c-0.88 -4.96 0.32 -10.224 4.16 -14.064l90.512 -90.512 c6.256 -6.256 16.384 -6.256 22.624 0c6.256 6.256 6.256 16.384 0 22.624L198.624 176H368c8.832 0 16 7.168 16 16C384 200.832 376.832 208 368 208zM256 448C114.608 448 0 333.392 0 192c0 -141.376 114.608 -256 256 -256s256 114.624 256 256C512 333.392 397.392 448 256 448zM256 -32C132.288 -32 32 68.288 32 192 C32 315.712 132.288 416 256 416s224 -100.288 224 -224C480 68.288 379.712 -32 256 -32z"/><glyph unicode="&#xE00A;" glyph-name="back46" horiz-adv-x="512" d="M448 448H64C28.656 448 0 419.344 0 384v-384c0 -35.344 28.656 -64 64 -64h384 c35.344 0 64 28.656 64 64V384C512 419.344 483.344 448 448 448zM480 0c0 -17.664 -14.32 -32 -32 -32H64c-17.68 0 -32 14.336 -32 32V384c0 17.68 14.32 32 32 32h384 c17.68 0 32 -14.32 32 -32V0zM352 208H182.624l65.936 65.936c6.256 6.256 6.256 16.384 0 22.624c-6.256 6.256 -16.384 6.256 -22.624 0 l-90.512 -90.512C131.6 202.224 130.4 196.96 131.28 192c-0.88 -4.96 0.32 -10.224 4.16 -14.064l90.512 -90.512c6.256 -6.256 16.384 -6.256 22.624 0 s6.256 16.384 0 22.624L182.624 176H352c8.832 0 16 7.168 16 16C368 200.832 360.832 208 352 208z"/><glyph unicode="&#xE00B;" glyph-name="big104" horiz-adv-x="384" d="M192 336c-44.176 0 -80 -35.824 -80 -80c0 -44.176 35.824 -80 80 -80s80 35.824 80 80 C272 300.176 236.176 336 192 336zM192 208c-26.512 0 -48 21.488 -48 48c0 26.512 21.488 48 48 48s48 -21.488 48 -48C240 229.488 218.512 208 192 208zM192 448 C85.968 448 0 362.032 0 256c0 -80.272 160.08 -320.16 192 -320c31.424 -0.16 192 240.8 192 320C384 362.032 298.032 448 192 448zM192 -16 C165.392 -16.144 32 189.104 32 256C32 344.368 103.632 416 192 416s160 -71.632 160 -160C352 190 218.192 -16.144 192 -16z"/><glyph unicode="&#xE00C;" glyph-name="book188" horiz-adv-x="512" d="M448 448c0 0 -92.624 -25.504 -176.8 -48c-10.544 -0.416 -21.184 0 -31.744 0 C159.28 421.504 64 448 64 448C28.656 448 0 419.344 0 384v-336c0 -35.344 30.16 -52.992 64 -64c0 0 86.288 -24 175.472 -48h32.4C361.792 -40 448 -16 448 -16 c32.848 8.496 64 28.656 64 64V384C512 419.344 483.344 448 448 448zM240 -31.968C152.608 -8.48 64 16 64 16c-18.176 4.992 -32 14.32 -32 32V384 c0 17.664 14.32 32 32 32l176 -48V-31.968zM480 48c0 -17.68 -14.832 -26.496 -32 -32c0 0 -87.088 -24.24 -176 -47.616V368l176 48c17.68 0 32 -14.32 32 -32V48z"/><glyph unicode="&#xE00D;" glyph-name="bookmark28" horiz-adv-x="375" d="M307.2 448H68.266666666667C30.5664 448 0 417.4336 0 379.73333333333v-375.46666666667c0 -37.700266666667 30.5664 -68.266666666667 68.266666666667 -68.266666666667l119.46666666667 119.46666666667l119.46666666667 -119.46666666667 c37.700266666667 0 68.266666666667 30.5664 68.266666666667 68.266666666667V379.73333333333C375.46666666667 417.4336 344.90026666667 448 307.2 448zM341.33333333333 4.2666666666667c0 -18.8416 -15.274666666667 -34.133333333333 -34.133333333333 -34.133333333333l-119.46666666667 119.46666666667l-119.46666666667 -119.46666666667c-18.858666666667 0 -34.133333333333 15.274666666667 -34.133333333333 34.133333333333V379.73333333333 c0 18.858666666667 15.274666666667 34.133333333333 34.133333333333 34.133333333333h238.93333333333c18.858666666667 0 34.133333333333 -15.274666666667 34.133333333333 -34.133333333333V4.2666666666667z"/><glyph unicode="&#xE00E;" glyph-name="bottle34" horiz-adv-x="192" d="M144.208 256H144V432c0 8.832 -7.168 16 -16 16H64C55.168 448 48 440.832 48 432v-176H47.792 C15.504 256 0 227.344 0 192v-256h192V192C192 227.344 175.68 256 144.208 256zM80 416h32v-32H80V416zM80 352h32v-96H80V352zM160 -32H32V192c0 17.68 14.32 32 32 32h64 c17.68 0 32 -14.32 32 -32V-32z"/><glyph unicode="&#xE00F;" glyph-name="button5" horiz-adv-x="585" d="M73.142857142857 265.14285714286c-40.393142857143 0 -73.142857142857 -32.749714285714 -73.142857142857 -73.142857142857s32.749714285714 -73.142857142857 73.142857142857 -73.142857142857c40.393142857143 0 73.142857142857 32.749714285714 73.142857142857 73.142857142857S113.536 265.14285714286 73.142857142857 265.14285714286 zM73.142857142857 155.42857142857c-20.205714285714 0 -36.571428571429 16.365714285714 -36.571428571429 36.571428571429c0 20.187428571429 16.365714285714 36.571428571429 36.571428571429 36.571428571429s36.571428571429 -16.365714285714 36.571428571429 -36.571428571429C109.71428571429 171.79428571429 93.348571428571 155.42857142857 73.142857142857 155.42857142857zM73.142857142857 82.285714285714c-40.393142857143 0 -73.142857142857 -32.749714285714 -73.142857142857 -73.142857142857 c0 -40.393142857143 32.749714285714 -73.142857142857 73.142857142857 -73.142857142857c40.393142857143 0 73.142857142857 32.749714285714 73.142857142857 73.142857142857C146.28571428571 49.536 113.536 82.285714285714 73.142857142857 82.285714285714zM73.142857142857 -27.428571428571c-20.205714285714 0 -36.571428571429 16.384 -36.571428571429 36.571428571429c0 20.187428571429 16.365714285714 36.571428571429 36.571428571429 36.571428571429s36.571428571429 -16.365714285714 36.571428571429 -36.571428571429 C109.71428571429 -11.062857142857 93.348571428571 -27.428571428571 73.142857142857 -27.428571428571zM512 301.71428571429c40.393142857143 0 73.142857142857 32.749714285714 73.142857142857 73.142857142857c0 40.393142857143 -32.749714285714 73.142857142857 -73.142857142857 73.142857142857c-40.393142857143 0 -73.142857142857 -32.749714285714 -73.142857142857 -73.142857142857C438.85714285714 334.464 471.60685714286 301.71428571429 512 301.71428571429zM512 411.42857142857 c20.205714285714 0 36.571428571429 -16.384 36.571428571429 -36.571428571429c0 -20.205714285714 -16.365714285714 -36.571428571429 -36.571428571429 -36.571428571429s-36.571428571429 16.365714285714 -36.571428571429 36.571428571429C475.42857142857 395.04457142857 491.79428571429 411.42857142857 512 411.42857142857zM512 82.285714285714c-40.393142857143 0 -73.142857142857 -32.749714285714 -73.142857142857 -73.142857142857c0 -40.393142857143 32.749714285714 -73.142857142857 73.142857142857 -73.142857142857 c40.393142857143 0 73.142857142857 32.749714285714 73.142857142857 73.142857142857C585.14285714286 49.536 552.39314285714 82.285714285714 512 82.285714285714zM512 -27.428571428571c-20.205714285714 0 -36.571428571429 16.384 -36.571428571429 36.571428571429c0 20.187428571429 16.365714285714 36.571428571429 36.571428571429 36.571428571429s36.571428571429 -16.365714285714 36.571428571429 -36.571428571429 C548.57142857143 -11.062857142857 532.20571428571 -27.428571428571 512 -27.428571428571zM73.142857142857 448C32.749714285714 448 0 415.25028571429 0 374.85714285714c0 -40.393142857143 32.749714285714 -73.142857142857 73.142857142857 -73.142857142857c40.393142857143 0 73.142857142857 32.749714285714 73.142857142857 73.142857142857C146.28571428571 415.25028571429 113.536 448 73.142857142857 448zM73.142857142857 338.28571428571 C52.937142857143 338.28571428571 36.571428571429 354.65142857143 36.571428571429 374.85714285714c0 20.187428571429 16.365714285714 36.571428571429 36.571428571429 36.571428571429s36.571428571429 -16.384 36.571428571429 -36.571428571429C109.71428571429 354.65142857143 93.348571428571 338.28571428571 73.142857142857 338.28571428571zM512 265.14285714286c-40.393142857143 0 -73.142857142857 -32.749714285714 -73.142857142857 -73.142857142857s32.749714285714 -73.142857142857 73.142857142857 -73.142857142857 c40.393142857143 0 73.142857142857 32.749714285714 73.142857142857 73.142857142857S552.39314285714 265.14285714286 512 265.14285714286zM512 155.42857142857c-20.205714285714 0 -36.571428571429 16.365714285714 -36.571428571429 36.571428571429c0 20.187428571429 16.365714285714 36.571428571429 36.571428571429 36.571428571429s36.571428571429 -16.365714285714 36.571428571429 -36.571428571429C548.57142857143 171.79428571429 532.20571428571 155.42857142857 512 155.42857142857zM292.57142857143 448c-40.393142857143 0 -73.142857142857 -32.749714285714 -73.142857142857 -73.142857142857c0 -40.393142857143 32.749714285714 -73.142857142857 73.142857142857 -73.142857142857c40.393142857143 0 73.142857142857 32.749714285714 73.142857142857 73.142857142857C365.71428571429 415.25028571429 332.96457142857 448 292.57142857143 448zM292.57142857143 338.28571428571c-20.205714285714 0 -36.571428571429 16.365714285714 -36.571428571429 36.571428571429 c0 20.187428571429 16.365714285714 36.571428571429 36.571428571429 36.571428571429s36.571428571429 -16.384 36.571428571429 -36.571428571429C329.14285714286 354.65142857143 312.77714285714 338.28571428571 292.57142857143 338.28571428571zM292.57142857143 82.285714285714c-40.393142857143 0 -73.142857142857 -32.749714285714 -73.142857142857 -73.142857142857c0 -40.393142857143 32.749714285714 -73.142857142857 73.142857142857 -73.142857142857c40.393142857143 0 73.142857142857 32.749714285714 73.142857142857 73.142857142857 C365.71428571429 49.536 332.96457142857 82.285714285714 292.57142857143 82.285714285714zM292.57142857143 -27.428571428571c-20.205714285714 0 -36.571428571429 16.384 -36.571428571429 36.571428571429c0 20.187428571429 16.365714285714 36.571428571429 36.571428571429 36.571428571429s36.571428571429 -16.365714285714 36.571428571429 -36.571428571429C329.14285714286 -11.062857142857 312.77714285714 -27.428571428571 292.57142857143 -27.428571428571zM292.57142857143 265.14285714286 c-40.393142857143 0 -73.142857142857 -32.749714285714 -73.142857142857 -73.142857142857s32.749714285714 -73.142857142857 73.142857142857 -73.142857142857c40.393142857143 0 73.142857142857 32.749714285714 73.142857142857 73.142857142857S332.96457142857 265.14285714286 292.57142857143 265.14285714286zM292.57142857143 155.42857142857c-20.205714285714 0 -36.571428571429 16.365714285714 -36.571428571429 36.571428571429c0 20.187428571429 16.365714285714 36.571428571429 36.571428571429 36.571428571429 s36.571428571429 -16.365714285714 36.571428571429 -36.571428571429C329.14285714286 171.79428571429 312.77714285714 155.42857142857 292.57142857143 155.42857142857z"/><glyph unicode="&#xE010;" glyph-name="buttons5" horiz-adv-x="396" d="M241.09123232323 216.72727272727c-10.236767676768 0 -18.545777777778 -8.2960808080808 -18.545777777778 -18.545777777778c0 -10.237414141414 8.3083636363636 -18.545777777778 18.545777777778 -18.545777777778 s18.545777777778 8.3083636363636 18.545777777778 18.545777777778C259.63636363636 208.43119191919 251.328 216.72727272727 241.09123232323 216.72727272727zM160.72727272727 204.36363636364H123.63636363636V241.45454545455 c0 6.8247272727273 -5.5389090909091 12.363636363636 -12.363636363636 12.363636363636S98.909090909091 248.27927272727 98.909090909091 241.45454545455v-37.090909090909H61.818181818182c-6.8247272727273 0 -12.363636363636 -5.5389090909091 -12.363636363636 -12.363636363636 s5.5389090909091 -12.363636363636 12.363636363636 -12.363636363636H98.909090909091V142.54545454545c0 -6.8247272727273 5.5389090909091 -12.363636363636 12.363636363636 -12.363636363636s12.363636363636 5.5389090909091 12.363636363636 12.363636363636v37.090909090909h37.090909090909 c6.8247272727273 0 12.363636363636 5.5389090909091 12.363636363636 12.363636363636S167.552 204.36363636364 160.72727272727 204.36363636364zM278.1814949495 167.27272727273c-10.236767676768 0 -18.545777777778 -8.2960808080808 -18.545777777778 -18.545777777778 c0 -10.237414141414 8.3083636363636 -18.545777777778 18.545777777778 -18.545777777778S296.72727272727 138.49018181818 296.72727272727 148.72694949495S288.41890909091 167.27272727273 278.1814949495 167.27272727273zM290.54577777778 253.81818181818 c-10.236767676768 0 -18.545777777778 -8.3083636363636 -18.545777777778 -18.545777777778s8.3083636363636 -18.545777777778 18.545777777778 -18.545777777778s18.545777777778 8.3083636363636 18.545777777778 18.545777777778 S300.78254545455 253.81818181818 290.54577777778 253.81818181818zM327.63604040404 204.36363636364c-10.236767676768 0 -18.545777777778 -8.3083636363636 -18.545777777778 -18.545777777778s8.3083636363636 -18.545777777778 18.545777777778 -18.545777777778 c10.237414141414 0 18.545777777778 8.3083636363636 18.545777777778 18.545777777778S337.87345454545 204.36363636364 327.63604040404 204.36363636364zM321.45454545455 303.27272727273h-247.27272727273 C33.208888888889 303.27272727273 0 270.06383838384 0 229.09090909091v-74.181818181818c0 -40.972929292929 33.208888888889 -74.181818181818 74.181818181818 -74.181818181818h247.27272727273c40.972929292929 0 74.181818181818 33.208888888889 74.181818181818 74.181818181818v74.181818181818 C395.63636363636 270.06383838384 362.42747474747 303.27272727273 321.45454545455 303.27272727273zM370.90909090909 154.90909090909c0 -27.311191919192 -22.143353535354 -49.454545454545 -49.454545454545 -49.454545454545h-247.27272727273 c-27.311191919192 0 -49.454545454545 22.143353535354 -49.454545454545 49.454545454545v74.181818181818c0 27.311191919192 22.143353535354 49.454545454545 49.454545454545 49.454545454545h247.27272727273c27.311191919192 0 49.454545454545 -22.143353535354 49.454545454545 -49.454545454545V154.90909090909z"/><glyph unicode="&#xE011;" glyph-name="cellphone55" horiz-adv-x="368" d="M304 448H64C28.656 448 0 419.344 0 384v-384c0 -35.344 28.656 -64 64 -64h240 c35.344 0 64 28.656 64 64V384C368 419.344 339.344 448 304 448zM336 0c0 -17.68 -14.32 -32 -32 -32H64c-17.68 0 -32 14.32 -32 32v48h304V0zM336 80H32V336h304V80zM336 368H32V384c0 17.68 14.32 32 32 32h240c17.68 0 32 -14.336 32 -32V368zM184 -16c13.248 0 24 10.752 24 24c0 13.248 -10.752 24 -24 24 c-13.248 0 -24 -10.752 -24 -24C160 -5.248 170.752 -16 184 -16z"/><glyph unicode="&#xE012;" glyph-name="cellular9" horiz-adv-x="288" d="M144 0c17.68 0 32 14.32 32 32c0 17.68 -14.32 32 -32 32c-17.68 0 -32 -14.32 -32 -32 C112 14.32 126.32 0 144 0zM224 448H64C28.656 448 0 419.344 0 384v-384c0 -35.344 28.656 -64 64 -64h160c35.344 0 64 28.656 64 64V384C288 419.344 259.344 448 224 448zM256 0c0 -17.68 -14.336 -32 -32 -32H64c-17.68 0 -32 14.32 -32 32v96h224V0zM256 128H32V336h224V128zM256 368H32V384c0 17.68 14.32 32 32 32h160 c17.664 0 32 -14.336 32 -32V368z"/><glyph unicode="&#xE013;" glyph-name="center10" horiz-adv-x="551" d="M19.692307692308 408.61538461538h512c10.870153846154 0 19.692307692308 8.8221538461538 19.692307692308 19.692307692308c0 10.870153846154 -8.8221538461538 19.692307692308 -19.692307692308 19.692307692308H19.692307692308C8.8221538461538 448 0 439.17784615385 0 428.30769230769 C0 417.43753846154 8.8221538461538 408.61538461538 19.692307692308 408.61538461538zM98.461538461538 290.46153846154C87.591384615385 290.46153846154 78.769230769231 281.63938461538 78.769230769231 270.76923076923s8.8221538461538 -19.692307692308 19.692307692308 -19.692307692308h354.46153846154c10.870153846154 0 19.692307692308 8.8221538461538 19.692307692308 19.692307692308s-8.8221538461538 19.692307692308 -19.692307692308 19.692307692308H98.461538461538zM413.53846153846 -24.615384615385H137.84615384615 c-10.870153846154 0 -19.692307692308 -8.8221538461538 -19.692307692308 -19.692307692308s8.8221538461538 -19.692307692308 19.692307692308 -19.692307692308h275.69230769231c10.870153846154 0 19.692307692308 8.8221538461538 19.692307692308 19.692307692308S424.40861538462 -24.615384615385 413.53846153846 -24.615384615385zM531.69230769231 132.92307692308H19.692307692308c-10.870153846154 0 -19.692307692308 -8.8221538461538 -19.692307692308 -19.692307692308c0 -10.870153846154 8.8221538461538 -19.692307692308 19.692307692308 -19.692307692308 h512c10.870153846154 0 19.692307692308 8.8221538461538 19.692307692308 19.692307692308C551.38461538462 124.10092307692 542.56246153846 132.92307692308 531.69230769231 132.92307692308z"/><glyph unicode="&#xE014;" glyph-name="chat51" horiz-adv-x="512" d="M336 176H176c-8.832 0 -16 -7.168 -16 -16s7.168 -16 16 -16h160c8.832 0 16 7.168 16 16 S344.832 176 336 176zM368 272H144c-8.832 0 -16 -7.168 -16 -16c0 -8.832 7.168 -16 16 -16h224c8.832 0 16 7.168 16 16C384 264.832 376.832 272 368 272zM256 448 C114.624 448 0 347.712 0 224c0 -70.704 37.52 -133.648 96 -174.704V-64l112.144 68.048C223.664 1.488 239.632 0 256 0c141.392 0 256 100.288 256 224 C512 347.712 397.392 448 256 448zM256 32c-18.688 0 -36.736 2.176 -54.08 5.872l-75.328 -45.28l1.008 74.208C69.856 101.536 32 158.944 32 224 C32 330.032 132.288 416 256 416s224 -85.968 224 -192C480 117.968 379.712 32 256 32z"/><glyph unicode="&#xE015;" glyph-name="chat55" horiz-adv-x="496" d="M200 240c13.248 0 24 10.736 24 24c0 13.248 -10.752 24 -24 24 c-13.248 0 -24 -10.752 -24 -24C176 250.736 186.752 240 200 240zM296 240c13.248 0 24 10.736 24 24c0 13.248 -10.752 24 -24 24 c-13.248 0 -24 -10.752 -24 -24C272 250.736 282.752 240 296 240zM154.176 84.208C166.624 82.192 194.896 80 208 80 c114.88 0 192 85.488 192 186C400 366.512 303.632 448 208 448C92.96 448 0 366.512 0 266c0 -58.224 22.192 -107.664 64 -143.264V32L154.176 84.208zM32 264C32 347.952 108.048 416 208 416c79.568 0 160 -68.048 160 -152c0 -83.952 -62.8 -152 -160 -152c-14.288 0 -44.096 1.632 -57.392 4.4L96 80v56.704 C56.976 168.368 32 210.672 32 264zM431.184 301.792C431.488 297.2 432 292.656 432 288c0 -10.176 -0.976 -20.144 -2.416 -29.984 C451.12 232.8 464 201.744 464 168c0 -53.328 -31.872 -100.176 -80 -127.296V-16l-54.608 36.4C316.096 17.632 302.288 16 288 16 c-41.44 0 -63.456 12.448 -93.536 33.152C185.744 48.448 176.928 48 168 48c-6.368 0 -12.608 0.464 -18.88 0.816 c38.08 -37.248 77.264 -60.816 138.88 -60.816c13.104 0 25.888 1.184 38.32 3.216L416 -64v90.752c48.624 33.312 80 85.024 80 143.264 C496 221.92 471.04 268.624 431.184 301.792zM104 240C117.248 240 128 250.736 128 264C128 277.248 117.248 288 104 288C90.752 288 80 277.248 80 264 C80 250.736 90.752 240 104 240z"/><glyph unicode="&#xE016;" glyph-name="checkmark14" horiz-adv-x="630" d="M606.3582801323 423.97723252058c-31.406814860395 32.036920236905 -82.307514806553 32.036920236905 -113.71432966695 0L208.34828090147 134.01061456811l-71.083762787478 72.501499884624 c-31.406814860395 32.036920236905 -82.307514806553 32.036920236905 -113.71432966695 0c-31.406814860395 -32.036920236905 -31.406814860395 -83.961541419891 0 -115.97877086378l127.93108222444 -130.49088531651c31.406814860395 -32.036920236905 82.307514806553 -32.036920236905 113.71432966695 0L606.3582801323 307.97877086378 C637.76509499269 340.01569110068 637.76509499269 391.94031228367 606.3582801323 423.97723252058zM577.94446581032 336.98330897623c0 0 -335.86585647258 -342.56072609799 -341.16267979386 -347.95600338436c-15.69356203369 -16.008614721944 -41.153757403277 -16.008614721944 -56.867010229982 0 c0 0 -128.7384047381 131.31789862318 -129.13222059842 131.75109606953c-14.512114452734 16.087377894008 -14.0986077994 41.134066610261 1.1814475809553 56.729174678871c15.69356203369 16.008614721944 41.153757403277 16.008614721944 56.867010229982 0l99.497577109453 -101.48634720406L521.07745558034 394.97269440812 c15.69356203369 16.008614721944 41.153757403277 16.008614721944 56.867010229982 0C593.63802784401 378.96407968618 593.63802784401 352.99192369818 577.94446581032 336.98330897623z"/><glyph unicode="&#xE017;" glyph-name="checkmark15" horiz-adv-x="512" d="M448 448H64C28.656 448 0 419.344 0 384v-384c0 -35.344 28.656 -64 64 -64h384 c35.344 0 64 28.656 64 64V384C512 419.344 483.344 448 448 448zM480 0c0 -17.68 -14.32 -32 -32 -32H64c-17.68 0 -32 14.32 -32 32V384c0 17.68 14.32 32 32 32h384 c17.68 0 32 -14.336 32 -32V0zM352.432 302.912c-7.648 4.416 -17.44 1.792 -21.856 -5.856l-102.32 -177.232l-57.248 52.8 c-6.048 6.448 -16.16 6.784 -22.624 0.736c-6.448 -6.048 -6.784 -16.16 -0.736 -22.608l73.152 -67.472c6.048 -6.448 16.16 -6.784 22.624 -0.736 c1.952 1.824 114.88 198.512 114.88 198.512C362.704 288.704 360.08 298.496 352.432 302.912z"/><glyph unicode="&#xE018;" glyph-name="checkmark16" horiz-adv-x="512" d="M352.432 302.912c-7.648 4.416 -17.44 1.792 -21.856 -5.856l-102.32 -177.232 l-57.248 52.8c-6.048 6.448 -16.16 6.784 -22.608 0.736c-6.448 -6.048 -6.784 -16.16 -0.736 -22.624l73.152 -67.472 c6.048 -6.448 16.16 -6.784 22.608 -0.736c1.952 1.824 114.88 198.512 114.88 198.512C362.704 288.704 360.08 298.496 352.432 302.912zM256 448 C114.608 448 0 333.392 0 192c0 -141.392 114.608 -256 256 -256c141.392 0 256 114.608 256 256C512 333.392 397.392 448 256 448zM256 -32C132.288 -32 32 68.288 32 192 C32 315.712 132.288 416 256 416c123.712 0 224 -100.288 224 -224C480 68.288 379.712 -32 256 -32z"/><glyph unicode="&#xE019;" glyph-name="circular220" horiz-adv-x="512" d="M256.144 368c-61.856 0 -112 -50.144 -112 -112s50.144 -112 112 -112c61.856 0 112 50.144 112 112 S318 368 256.144 368zM256.144 176c-44.176 0 -80 35.824 -80 80c0 44.176 35.824 80 80 80c44.176 0 80 -35.824 80 -80C336.144 211.824 300.32 176 256.144 176zM432.48 169.04c12.848 25.76 20.272 54.624 20.272 85.264C452.752 361.28 364.72 448 256.144 448C147.552 448 59.536 361.28 59.536 254.304 c0 -30.64 7.424 -59.504 20.272 -85.264L0 32.864c0 0 50.608 -10.144 101.952 -20.72C136.192 -25.968 170.272 -64 170.272 -64l73.376 125.216 c4.16 -0.256 8.272 -0.624 12.496 -0.624c4.224 0 8.352 0.368 12.496 0.624L342.016 -64c0 0 34.08 38.016 68.304 76.128 c51.344 10.576 101.968 20.72 101.968 20.72L432.48 169.04zM166.464 -5.92c0 0 -24.576 23.296 -47.68 45.76 c-32.768 9.328 -65.84 18.816 -65.84 18.816l46.384 79.152c26.752 -34.896 65.136 -60.512 109.552 -71.328L166.464 -5.92zM256.144 95.872 c-88.288 0 -159.84 71.712 -159.84 160.176c0 88.464 71.568 160.16 159.84 160.16c88.272 0 159.84 -71.712 159.84 -160.16 C415.984 167.584 344.416 95.872 256.144 95.872zM393.488 39.84c-23.104 -22.448 -47.68 -45.76 -47.68 -45.76l-42.416 72.384 c44.416 10.816 82.8 36.432 109.552 71.328l46.384 -79.152C459.328 58.656 426.256 49.168 393.488 39.84z"/><glyph unicode="&#xE01A;" glyph-name="circular224" horiz-adv-x="512" d="M256 448C114.61973333333 448 0 333.38026666667 0 192c0 -141.38026666667 114.61973333333 -256 256 -256c141.38026666667 0 256 114.61973333333 256 256 C512 333.38026666667 397.38026666667 448 256 448zM273.06666666667 -29.013333333333V55.466666666667c0 9.4208 -7.6458666666667 17.066666666667 -17.066666666667 17.066666666667s-17.066666666667 -7.6458666666667 -17.066666666667 -17.066666666667v-84.48C130.048 -20.701866666667 43.264 66.065066666667 34.952533333333 174.93333333333H119.46666666667 c9.4208 0 17.066666666667 7.6458666666667 17.066666666667 17.066666666667s-7.6458666666667 17.066666666667 -17.066666666667 17.066666666667H34.952533333333C43.264 317.93493333333 130.048 404.6848 238.93333333333 412.99626666667V328.53333333333c0 -9.4208 7.6458666666667 -17.066666666667 17.066666666667 -17.066666666667s17.066666666667 7.6458666666667 17.066666666667 17.066666666667V412.99626666667 C381.952 404.6848 468.736 317.93493333333 477.04746666667 209.06666666667H392.53333333333c-9.4208 0 -17.066666666667 -7.6458666666667 -17.066666666667 -17.066666666667s7.6458666666667 -17.066666666667 17.066666666667 -17.066666666667h84.514133333333C468.736 66.065066666667 381.952 -20.701866666667 273.06666666667 -29.013333333333z"/><glyph unicode="&#xE01B;" glyph-name="circular228" horiz-adv-x="512" d="M240 448l-32 0v-48C91.536 387.36 0 287.568 0 168C0 39.872 103.872 -64 232 -64 c94.496 0 175.648 56.592 211.824 137.648L480 64c17.488 28.72 32 69.488 32 118.848C512 329.296 384.08 448 240 448zM232 -32 C121.536 -32 32 57.536 32 168C32 268.64 110.672 353.952 208 368v-214.864l203.344 -70.832C384.272 13.952 306.608 -32 232 -32zM456.816 102.176L240 176 V416c124.464 0.64 238.224 -106.912 238.224 -233.152C478.224 149.936 469.616 124.96 456.816 102.176z"/><glyph unicode="&#xE01C;" glyph-name="circular229" horiz-adv-x="512" d="M379.84 416H496c8.832 0 16 7.168 16 16c0 8.832 -7.168 16 -16 16H336c-1.936 0 -16 0 -16 -16 v-160c0 -8.832 7.168 -16 16 -16c8.832 0 16 7.168 16 16V394.256c75.648 -35.936 128 -112.928 128 -202.256c0 -123.712 -100.288 -224 -224 -224C132.288 -32 32 68.288 32 192 C32 304.816 115.488 397.888 224 413.456V445.792C97.76 430.016 0 322.528 0 192c0 -141.392 114.608 -256 256 -256s256 114.608 256 256 C512 288.448 458.624 372.352 379.84 416z"/><glyph unicode="&#xE01D;" glyph-name="clipboard68" horiz-adv-x="448" d="M336 144H112c-8.832 0 -16 -7.168 -16 -16s7.168 -16 16 -16h224c8.832 0 16 7.168 16 16 S344.832 144 336 144zM336 64H112c-8.832 0 -16 -7.168 -16 -16c0 -8.832 7.168 -16 16 -16h224c8.832 0 16 7.168 16 16C352 56.832 344.832 64 336 64zM384 384 h-48V416h-43.104C279.04 435.056 253.536 448 224 448c-29.536 0 -55.04 -12.944 -68.896 -32H112v-32H64C28.656 384 0 355.344 0 320v-320c0 -35.344 28.656 -64 64 -64h320 c35.344 0 64 28.656 64 64V320C448 355.344 419.344 384 384 384zM144 384h35.552c0 17.664 19.904 32 44.448 32c24.544 0 44.448 -14.32 44.448 -32H304v-64H144V384zM416 0c0 -17.664 -14.32 -32 -32 -32H64c-17.68 0 -32 14.336 -32 32V320c0 17.664 14.32 32 32 32h48v-64h224V352h48c17.68 0 32 -14.336 32 -32V0zM336 224H112 c-8.832 0 -16 -7.168 -16 -16c0 -8.832 7.168 -16 16 -16h224c8.832 0 16 7.168 16 16C352 216.832 344.832 224 336 224z"/><glyph unicode="&#xE01E;" glyph-name="close42" horiz-adv-x="512" d="M347.472 283.472c-6.304 6.304 -16.512 6.304 -22.8 0l-68.752 -68.752 l-67.792 67.792c-6.256 6.256 -16.384 6.256 -22.624 0c-6.256 -6.256 -6.256 -16.384 0 -22.624l67.792 -67.792l-68.256 -68.256 c-6.304 -6.304 -6.304 -16.512 0 -22.8c6.304 -6.288 16.512 -6.288 22.8 0l68.256 68.256l67.792 -67.792c6.256 -6.256 16.384 -6.256 22.624 0 c6.256 6.256 6.256 16.384 0 22.624l-67.792 67.792l68.752 68.752C353.776 266.96 353.776 277.184 347.472 283.472zM256 448 C114.608 448 0 333.392 0 192s114.608 -256 256 -256c141.376 0 256 114.624 256 256S397.392 448 256 448zM256 -32C132.288 -32 32 68.288 32 192S132.288 416 256 416 s224 -100.288 224 -224S379.712 -32 256 -32z"/><glyph unicode="&#xE01F;" glyph-name="cloud255" horiz-adv-x="683" d="M492.096 340.71466666667C460.77866666667 404.224 395.584 448 320 448c-101.312 0 -184.10666666667 -78.528 -191.296 -178.02666666667 C54.229333333333 248.74666666667 0 183.68 0 106.66666666667c0 -90.858666666667 75.52 -164.928 170.66666666667 -170.15466666667C170.66666666667 -63.488 465.728 -64 469.33333333333 -64c111.936 0 213.33333333333 90.730666666667 213.33333333333 202.66666666667 C682.66666666667 246.50666666667 598.35733333333 334.42133333333 492.096 340.71466666667zM469.33333333333 -21.333333333333c-2.7093333333333 0 -298.66666666667 0 -298.66666666667 0s-128.81066666667 13.226666666667 -128 128c0.448 64.768 57.344 124.11733333333 128 128 c0 88.362666666667 56.554666666667 170.66666666667 149.33333333333 170.66666666667c73.237333333333 0 122.09066666667 -44.693333333333 139.47733333333 -106.944C565.184 302.99733333333 636.672 219.37066666667 640 149.33333333333C644.48 55.189333333333 546.15466666667 -21.333333333333 469.33333333333 -21.333333333333z"/><glyph unicode="&#xE020;" glyph-name="cloud260" horiz-adv-x="512" d="M208 -32c-8.832 0 -16 -7.168 -16 -16c0 -8.832 7.168 -16 16 -16c8.832 0 16 7.168 16 16 C224 -39.168 216.832 -32 208 -32zM176 32c-8.832 0 -16 -7.168 -16 -16c0 -8.832 7.168 -16 16 -16c8.832 0 16 7.168 16 16C192 24.832 184.832 32 176 32zM272 32c-8.832 0 -16 -7.168 -16 -16c0 -8.832 7.168 -16 16 -16c8.832 0 16 7.168 16 16C288 24.832 280.832 32 272 32zM304 -32c-8.832 0 -16 -7.168 -16 -16 c0 -8.832 7.168 -16 16 -16c8.832 0 16 7.168 16 16C320 -39.168 312.832 -32 304 -32zM369.072 367.536C345.584 415.168 296.688 448 240 448 c-75.984 0 -138.08 -58.896 -143.472 -133.52C40.672 298.56 0 249.76 0 192c0 -68.144 56.64 -124.08 128 -128c0 0 237.296 0 240 0c78.448 0 144 68.048 144 152 C512 303.888 448.768 362.816 369.072 367.536zM352 96c-2.032 0 -208 0 -208 0c-80.16 0.912 -112 62.208 -112 96c0 43.648 38.768 92.64 96 96 c-0.512 65.024 39.744 128 112 128c54.848 0 91.2 -33.584 104.288 -80.176C418.272 339.216 480 287.104 480 224C480 156.816 431.616 96 352 96zM368 32 c-8.832 0 -16 -7.168 -16 -16c0 -8.832 7.168 -16 16 -16c8.832 0 16 7.168 16 16C384 24.832 376.832 32 368 32z"/><glyph unicode="&#xE021;" glyph-name="cocktail26" horiz-adv-x="494" d="M487.53633539264 415.91200942756c3.8030211048816 3.3642109773953 6.3627468485519 8.1728386244331 6.3627468485519 13.767667749884 c0 7.8802985394422 -4.8634789129736 14.444166696425 -11.591900867764 17.022176195408c-2.632860764918 1.1153090740278 -5.4485590829554 1.4444166696425 -8.2642574009928 1.2615791165232H19.490483162518c-5.0828839767168 0.32910759561476 -10.238902974681 -1.2798628718352 -14.115059100811 -5.1743027532764 c-7.1672320822769 -7.1855158375888 -7.1672320822769 -18.850551726601 0 -26.03606756419l232.53280005714 -279.61346998536v-164.55379780738h-73.135021247723c-10.092632932186 0 -18.283755311931 -8.191122379745 -18.283755311931 -18.283755311931c0 -10.092632932186 8.191122379745 -18.283755311931 18.283755311931 -18.283755311931h182.83755311931c10.092632932186 0 18.283755311931 8.191122379745 18.283755311931 18.283755311931 c0 10.092632932186 -8.191122379745 18.283755311931 -18.283755311931 18.283755311931h-73.135021247723v164.55379780738L487.53633539264 415.91200942756zM256.19197943078 173.70710281041l-199.43920294254 237.6888190551h381.96593222155L256.19197943078 173.70710281041z"/><glyph unicode="&#xE022;" glyph-name="code30" horiz-adv-x="591" d="M151.65121107266 103.87143406382l-102.18346789696 82.616839677047l102.18346789696 82.616839677047c7.7557862360631 7.5589388696655 7.7557862360631 19.822529796232 0 27.381468665898 c-7.7557862360631 7.5589388696655 -20.314648212226 7.5589388696655 -28.070434448289 0L5.6495194156094 201.15340253749c-4.1337946943483 -4.0353710111496 -5.8857362552864 -9.3896193771626 -5.6101499423299 -14.665128796617c-0.27558631295656 -5.2755094194541 1.4763552479815 -10.629757785467 5.6101499423299 -14.665128796617 l117.93125720877 -95.333179546328c7.7557862360631 -7.5589388696655 20.314648212226 -7.5589388696655 28.070434448289 0C159.40699730873 84.048904267589 159.40699730873 96.312495194156 151.65121107266 103.87143406382zM432.33587081892 445.40161476355 c-9.4093041138024 5.3345636293733 -21.456362937332 2.1653210303729 -26.889350249904 -7.0668204536717l-246.05920799692 -474.14625144175c-5.4329873125721 -9.2321414840446 -3.1889273356401 -23.346097654748 7.2046136101499 -26.357862360631c12.716339869281 -3.681045751634 21.456362937332 -2.1653210303729 26.889350249904 7.0668204536717 l246.05920799692 474.14625144175C444.99315647828 428.29557862361 441.76485966936 440.08673587082 432.33587081892 445.40161476355zM585.03037293349 201.15340253749L467.11880046136 296.50626682045c-7.7557862360631 7.5589388696655 -20.314648212226 7.5589388696655 -28.070434448289 0 c-7.7557862360631 -7.5589388696655 -7.7557862360631 -19.822529796232 0 -27.381468665898l102.18346789696 -82.616839677047l-102.18346789696 -82.616839677047c-7.7557862360631 -7.5589388696655 -7.7557862360631 -19.822529796232 0 -27.381468665898c7.7557862360631 -7.5589388696655 20.314648212226 -7.5589388696655 28.070434448289 0 l117.93125720877 95.333179546328c4.1337946943483 4.0353710111496 5.8857362552864 9.3896193771626 5.6101499423299 14.665128796617C590.93579392541 191.76378316032 589.16416762784 197.11803152634 585.03037293349 201.15340253749z"/><glyph unicode="&#xE023;" glyph-name="collapse5" horiz-adv-x="513" d="M208.19007127673 160.22808553207l-142.11729398524 0c-8.7552832312117 0 -15.845942228336 -7.0586469926222 -15.845942228336 -15.781918219332 c0 -8.7072652244592 7.0906589971239 -15.781918219332 15.845942228336 -15.781918219332l104.99937476554 0L0 -41.687632862323l22.408403151182 -22.312367137677l170.89608603226 170.19182193322l-0.49618606977617 -103.71889458547c0 -8.7072652244592 7.0906589971239 -15.781918219332 15.845942228336 -15.781918219332 c8.7552832312117 0 15.845942228336 7.0586469926222 15.845942228336 15.781918219332v141.98924596724c0 4.6737526572465 -1.9367262723521 8.4511691884457 -5.0098787045142 11.044141553082C216.59322245842 158.38739527323 212.60772789796 160.22808553207 208.19007127673 160.22808553207zM446.5834688008 255.33575090659l-104.99937476554 0L512.64024009003 425.68763286232L490.23183693885 448L319.35175690884 277.80817806678l0.49618606977617 103.71889458547c0 8.7072652244592 -7.0906589971239 15.781918219332 -15.845942228336 15.781918219332 c-8.7552832312117 0 -15.845942228336 -7.0586469926222 -15.845942228336 -15.781918219332v-141.98924596724c0 -4.6737526572465 1.9367262723521 -8.4511691884457 4.9938727022633 -11.028135550832c2.8810804051519 -2.9130924096536 6.8505689633613 -4.7537826685007 11.284231586845 -4.7537826685007l142.11729398524 0 c8.7552832312117 0 15.845942228336 7.0586469926222 15.845942228336 15.781918219332C462.41340502689 248.26109791172 455.32274602976 255.33575090659 446.5834688008 255.33575090659z"/><glyph unicode="&#xE024;" glyph-name="comment45" horiz-adv-x="512" d="M255.99200024999 448C114.60441861192 448 0 349.73107090403 0 228.48685978563c0 -99.980875597638 78.029561576201 -184.18624417987 184.66622918034 -210.69741570576 L255.99200024999 -64l71.325771069654 81.789444079873C433.95443892378 44.300615605762 511.98400049998 128.50598418799 511.98400049998 228.48685978563C511.98400049998 349.73107090403 397.37958188807 448 255.99200024999 448zM311.89425330458 53.900315615137l-35.21489953439 -44.014624542983L255.99200024999 -15.985500453111 l-55.902253054592 69.885816068248C103.420768101 74.331677135089 31.88700353114 146.20143120527 31.88700353114 231.99075028905C31.88700353114 333.66757288835 132.21986812912 416.09699696884 255.99200024999 416.09699696884c123.77213212087 0 224.10499671885 -82.429424080497 224.10499671885 -184.10624667979 C480.11299646886 146.20143120527 408.56323239899 74.331677135089 311.89425330458 53.900315615137z"/><glyph unicode="&#xE025;" glyph-name="compass80" horiz-adv-x="512" d="M272.9710550887 183.56569294384c0 14.136854741897 -11.473389355742 25.610244097639 -25.610244097639 25.610244097639s-25.610244097639 -11.473389355742 -25.610244097639 -25.610244097639 c0 -14.136854741897 11.473389355742 -25.610244097639 25.610244097639 -25.610244097639S272.9710550887 169.42883820195 272.9710550887 183.56569294384zM196.56716019741 95.585967720422l15.810057356276 78.606375883687l-29.571295184741 17.073496065093l-22.451647325597 -158.40789649193l125.95118047219 98.650660264106l-29.571295184741 17.073496065093 L196.56716019741 95.585967720422zM237.98746165133 218.54928638122l60.167000133387 52.996131786048l-15.810057356276 -78.606375883687l29.571295184741 -17.073496065093l22.451647325597 158.40789649193l-125.95118047219 -98.650660264106L237.98746165133 218.54928638122zM256 448 C114.61437908497 448 0 333.38562091503 0 192c0 -141.38562091503 114.61437908497 -256 256 -256c141.38562091503 0 256 114.61437908497 256 256 C512 333.38562091503 397.38562091503 448 256 448zM255.89755902361 -29.853007869815c-122.58770174737 0 -221.95544884621 99.36774709884 -221.95544884621 221.95544884621c0 122.58770174737 99.36774709884 221.95544884621 221.95544884621 221.95544884621s221.95544884621 -99.36774709884 221.95544884621 -221.95544884621 C477.85300786981 69.514739229025 378.48526077098 -29.853007869815 255.89755902361 -29.853007869815z"/><glyph unicode="&#xE026;" glyph-name="contract5" horiz-adv-x="512" d="M223.552 176L80 176c-8.832 0 -16 -7.168 -16 -16c0 -8.832 7.168 -16 16 -16l106.048 0 L77.28 35.216l22.624 -22.624l108.608 108.608L208 16c0 -8.832 7.168 -16 16 -16c8.832 0 16 7.168 16 16v144c0 4.736 -1.968 8.56 -5.056 11.2 C232.048 174.144 228.016 176 223.552 176zM432 240l-106.064 0l108.784 108.784l-22.624 22.624l-108.608 -108.608L304 368c0 8.832 -7.168 16 -16 16 c-8.832 0 -16 -7.168 -16 -16v-144c0 -4.736 1.952 -8.56 5.056 -11.2C279.952 209.84 283.984 208 288.448 208L432 208c8.832 0 16 7.168 16 16 C448 232.832 440.832 240 432 240zM448 448H64C28.656 448 0 419.344 0 384v-384c0 -35.344 28.656 -64 64 -64h384c35.344 0 64 28.656 64 64V384 C512 419.344 483.344 448 448 448zM480 0c0 -17.664 -14.32 -32 -32 -32H64c-17.68 0 -32 14.336 -32 32V384c0 17.664 14.32 32 32 32h384c17.68 0 32 -14.32 32 -32V0z"/><glyph unicode="&#xE027;" glyph-name="copy23" horiz-adv-x="448" d="M336 448C334.016 448 144 448 144 448C110.144 448 80 416.944 80 384L61.504 383.568 C27.664 383.568 0 352.944 0 320v-320c0 -32.944 30.144 -64 64 -64h240c33.856 0 64 31.056 64 64h16c33.856 0 64 31.056 64 64V319.616L336 448zM304 -32H64 c-16.8 0 -32 15.696 -32 32V320c0 16.304 13.68 31.472 30.48 31.472L80 352v-288c0 -32.944 30.144 -64 64 -64h192C336 -16.304 320.8 -32 304 -32zM416 64 c0 -16.304 -15.2 -32 -32 -32H144c-16.8 0 -32 15.696 -32 32V384c0 16.304 15.2 32 32 32h160c-0.256 -36.848 0 -64.4 0 -64.4C304 318.352 333.92 288 368 288 c0 0 16.992 0 48 0V64zM368 320c-17.04 0 -32 30.96 -32 47.568c0 0 0 16.832 0 47.936V415.536L416 320H368zM336 223.712h-144c-8.832 0 -16 -7.152 -16 -15.984 c0 -8.832 7.168 -15.984 16 -15.984h144c8.832 0 16 7.152 16 15.984C352 216.56 344.832 223.712 336 223.712zM336 143.792h-144 c-8.832 0 -16 -7.152 -16 -15.984c0 -8.832 7.168 -15.984 16 -15.984h144c8.832 0 16 7.152 16 15.984C352 136.64 344.832 143.792 336 143.792z"/><glyph unicode="&#xE028;" glyph-name="crescent23" horiz-adv-x="352" d="M180.096 192c0 110.416 71.664 204.224 171.904 240.144 C323.888 442.224 293.648 448 261.952 448C117.28 448 0 333.376 0 192c0 -141.392 117.28 -256 261.952 -256c31.696 0 61.936 5.776 90.048 15.856 C251.76 -12.224 180.096 81.584 180.096 192zM227.68 -32C148.592 -26.24 32.752 68.288 32.752 192c0 123.712 113.36 217.072 194.944 224 c24.528 2.08 11.568 2 34.272 0c-53.392 -33.648 -114.512 -127.392 -114.512 -224c0 -96.608 44.448 -185.904 114.512 -224 C240.384 -34 251.168 -33.712 227.68 -32z"/><glyph unicode="&#xE029;" glyph-name="cropping1" horiz-adv-x="512" d="M496 32h-48V304l-32 -32v-240H117.952L467.408 396.784l-22.624 22.624L96 55.328V352h224.32 l29.456 32H96l0 48c0 8.832 -7.168 16 -16 16C71.168 448 64 440.832 64 432v-48H16C7.168 384 0 376.832 0 368c0 -8.832 7.168 -16 16 -16h48l0 -320v-32h352v-48 c0 -8.832 7.168 -16 16 -16c8.832 0 16 7.168 16 16l0 48h48c8.832 0 16 7.168 16 16C512 24.832 504.832 32 496 32z"/><glyph unicode="&#xE02A;" glyph-name="cross81" horiz-adv-x="512" d="M371.98944084473 192l115.98944084473 115.98944084473c32.02815774738 32.02815774738 32.02815774738 83.961283097352 0 115.98944084473 c-32.02815774738 32.02815774738 -83.961283097352 32.02815774738 -115.98944084473 0l-115.98944084473 -115.98944084473L140.01055915527 423.97888168946c-32.02815774738 32.02815774738 -83.961283097352 32.02815774738 -115.98944084473 0c-32.02815774738 -32.02815774738 -32.02815774738 -83.961283097352 0 -115.98944084473 l115.98944084473 -115.98944084473l-115.98944084473 -115.98944084473c-32.02815774738 -32.02815774738 -32.02815774738 -83.961283097352 0 -115.98944084473c32.02815774738 -32.02815774738 83.961283097352 -32.02815774738 115.98944084473 0l115.98944084473 115.98944084473l115.98944084473 -115.98944084473 c32.02815774738 -32.02815774738 83.961283097352 -32.02815774738 115.98944084473 0c32.02815774738 32.02815774738 32.02815774738 83.961283097352 0 115.98944084473L371.98944084473 192zM458.98152147828 -10.981521478282c-16.01407887369 -16.01407887369 -41.980641548676 -16.01407887369 -57.994720422366 0 l-144.98680105592 144.98680105592l-144.98680105592 -144.98680105592c-16.01407887369 -16.01407887369 -41.980641548676 -16.01407887369 -57.994720422366 0c-16.01407887369 16.01407887369 -16.01407887369 41.980641548676 0 57.994720422366l144.98680105592 144.98680105592l-144.98680105592 144.98680105592 c-16.01407887369 16.01407887369 -16.01407887369 41.980641548676 0 57.994720422366c16.01407887369 16.01407887369 41.980641548676 16.01407887369 57.994720422366 0l144.98680105592 -144.98680105592l144.98680105592 144.98680105592c16.01407887369 16.01407887369 41.980641548676 16.01407887369 57.994720422366 0 c16.01407887369 -16.01407887369 16.01407887369 -41.980641548676 0 -57.994720422366l-144.98680105592 -144.98680105592l144.98680105592 -144.98680105592C474.99560035197 30.999120070394 474.99560035197 5.0325573954083 458.98152147828 -10.981521478282z"/><glyph unicode="&#xE02B;" glyph-name="cross83" horiz-adv-x="512" d="M335.2 271.2c-6.256 6.256 -16.384 6.256 -22.624 0L256 214.624l-56.576 56.576 c-6.256 6.256 -16.384 6.256 -22.624 0c-6.256 -6.256 -6.256 -16.384 0 -22.624L233.376 192l-56.576 -56.576c-6.256 -6.256 -6.256 -16.384 0 -22.624 c6.256 -6.256 16.384 -6.256 22.624 0L256 169.376l56.576 -56.56c6.256 -6.256 16.384 -6.256 22.624 0c6.256 6.256 6.256 16.384 0 22.624 L278.624 192l56.576 56.56C341.44 254.816 341.44 264.944 335.2 271.2zM448 448H64C28.656 448 0 419.344 0 384v-384c0 -35.344 28.656 -64 64 -64h384 c35.344 0 64 28.656 64 64V384C512 419.344 483.344 448 448 448zM480 0c0 -17.68 -14.32 -32 -32 -32H64c-17.68 0 -32 14.32 -32 32V384c0 17.68 14.32 32 32 32h384 c17.68 0 32 -14.336 32 -32V0z"/><glyph unicode="&#xE02C;" glyph-name="cube29" horiz-adv-x="547" d="M273.45862402777 -35.953399873151L36.455452815703 73.310411589946C37.275828687786 72.814767833895 15.484594585573 82.659278298895 0 91.512501251794 c0 -13.211469773342 3.3156858163367 -37.429649163801 15.638415061588 -43.958473812465l232.02964248757 -104.30737390259c20.509396802083 -9.6735988249825 29.34552859098 -9.6735988249825 51.564041793237 0l232.02964248757 104.30737390259C542.72991287512 52.886470607871 546.91724805555 77.993390526421 546.91724805555 91.512501251794 c-14.920586173515 -7.4688386687586 -36.045264879661 -18.11663384184 -36.455452815703 -18.202089661849L273.45862402777 -35.953399873151zM273.45862402777 419.30393564109C275.16774042795 417.30426945288 274.7233701639 418.89374770504 273.45862402777 419.30393564109L273.45862402777 419.30393564109zM15.638415061588 156.81783890243 l232.02964248757 -104.30737390259c20.509396802083 -9.6735988249825 29.34552859098 -9.6735988249825 51.564041793237 0l232.02964248757 104.30737390259C542.72991287512 162.15028207097 546.91724805555 187.25720198952 546.91724805555 200.77631271489 c-14.920586173515 -7.4688386687586 -36.045264879661 -18.11663384184 -36.455452815703 -18.202089661849L273.45862402777 73.310411589946L36.455452815703 182.57422305304C37.275828687786 182.07857929699 15.484594585573 191.92308976199 0 200.77631271489 C0 187.56484294155 3.3156858163367 163.34666355109 15.638415061588 156.81783890243zM15.638415061588 266.08165036552l232.02964248757 -104.30737390259c20.509396802083 -9.6735988249825 29.34552859098 -9.6735988249825 51.564041793237 0l232.02964248757 104.30737390259 c17.091164001736 7.9644824248089 17.655172413793 41.839169476249 0 51.512768301232L299.23209934239 440.1038822312c-18.21918082585 10.801615649097 -31.054644991154 10.23760723704 -51.564041793237 0L15.638415061588 317.59441866676C-2.0167573522048 306.2117034416 -2.5807657642621 275.75524919051 15.638415061588 266.08165036552zM273.45862402777 419.30393564109l237.00317121207 -127.46590112495L273.45862402777 191.95727209L36.455452815703 291.83803451614L273.45862402777 419.30393564109z"/><glyph unicode="&#xE02D;" glyph-name="double97" horiz-adv-x="224" d="M196.35091227193 58.017495626094l-68.318920269933 -68.126968257936V394.10947263184l68.318920269933 -68.126968257936 c6.2864283929018 -6.270432391902 16.491877030742 -6.270432391902 22.778305423644 0c6.2864283929018 6.270432391902 6.2864283929018 16.443889027743 0 22.714321419645L124.11297175706 443.42514371407c-3.3591602099475 3.3431642089478 -7.806048487878 4.7668082979255 -12.18895276181 4.542864283929 C107.52511872032 448.207948013 103.07823044239 446.78430392402 99.719070232442 443.42514371407L4.7188202949263 348.69682579355c-6.2864283929018 -6.270432391902 -6.2864283929018 -16.443889027743 0 -22.714321419645c6.2864283929018 -6.270432391902 16.491877030742 -6.270432391902 22.778305423644 0L95.816045988503 394.10947263184 v-404.21894526368L27.49712571857 58.017495626094c-6.2864283929018 6.270432391902 -16.491877030742 6.270432391902 -22.778305423644 0c-6.2864283929018 -6.270432391902 -6.2864283929018 -16.443889027743 0 -22.714321419645l95.000249937516 -94.74431392152 c3.3591602099475 -3.3431642089478 7.806048487878 -4.7668082979255 12.18895276181 -4.542864283929c4.3989002749313 -0.2239440139965 8.8457885528618 1.1997000749813 12.18895276181 4.542864283929l95.000249937516 94.74431392152c6.2864283929018 6.270432391902 6.2864283929018 16.443889027743 0 22.714321419645 C212.82679330167 64.287928017996 202.63734066483 64.287928017996 196.35091227193 58.017495626094z"/><glyph unicode="&#xE02E;" glyph-name="double98" horiz-adv-x="491" d="M232.98708656169 192c0.469216029326 6.035824377239 -1.364992085312 12.199616762476 -5.993168374573 16.806465050404L36.705490294093 398.77497292344 c-8.403232525202 8.381904523869 -22.010497375656 8.381904523869 -30.413729900858 0c-8.403232525202 -8.381904523869 -8.403232525202 -21.96784137299 0 -30.371073898192l176.70249104391 -176.40389902524l-176.70249104391 -176.40389902524c-8.403232525202 -8.381904523869 -8.403232525202 -21.96784137299 0 -30.349745896859 c8.403232525202 -8.381904523869 22.010497375656 -8.381904523869 30.413729900858 0l190.28842789303 189.96850787303C231.62209447638 179.82171123886 233.43497458969 185.96417562276 232.98708656169 192zM485.04140631509 208.8064650504L251.7343997334 441.70823960676 c-8.403232525202 8.381904523869 -22.010497375656 8.381904523869 -30.413729900858 0c-8.403232525202 -8.381904523869 -8.403232525202 -21.989169374323 0 -30.349745896859l219.72106973257 -219.35849370991L221.32066983254 -27.337165708573 c-8.403232525202 -8.381904523869 -8.403232525202 -21.96784137299 0 -30.371073898192c8.403232525202 -8.381904523869 22.010497375656 -8.381904523869 30.413729900858 0l233.28567858035 232.90177455636c4.628176289261 4.606848287928 6.441056402566 10.770640673165 5.97184037324 16.806465050404 C491.48246271765 198.03582437724 489.64825460302 204.19961676248 485.04140631509 208.8064650504z"/><glyph unicode="&#xE02F;" glyph-name="double99" horiz-adv-x="396" d="M392.1014949495 201.42480808081l-73.199191919192 73.409292929293c-4.8452525252525 4.8575353535354 -12.706909090909 4.8575353535354 -17.552161616162 0c-4.8452525252525 -4.8575353535354 -4.8452525252525 -12.743757575758 0 -17.601292929293l52.643555555556 -52.791595959596 H41.642666666667l52.643555555556 52.791595959596c4.8452525252525 4.8575353535354 4.8452525252525 12.743757575758 0 17.601292929293c-4.8452525252525 4.8575353535354 -12.706909090909 4.8575353535354 -17.552161616162 0L3.5348686868687 201.42480808081 c-2.5832727272727 -2.5955555555556 -3.6835555555556 -6.0321616161616 -3.510303030303 -9.4189898989899c-0.17325252525253 -3.3991111111111 0.9270303030303 -6.8350707070707 3.510303030303 -9.4312727272727l73.211474747475 -73.409292929293c4.8452525252525 -4.8575353535354 12.706909090909 -4.8575353535354 17.552161616162 0 c4.8452525252525 4.8575353535354 4.8452525252525 12.743757575758 0 17.601292929293l-52.655838383838 52.791595959596h312.35103030303l-52.643555555556 -52.791595959596c-4.8452525252525 -4.8575353535354 -4.8452525252525 -12.743757575758 0 -17.601292929293 c4.8452525252525 -4.8575353535354 12.706909090909 -4.8575353535354 17.552161616162 0l73.211474747475 73.409292929293c2.5832727272727 2.5955555555556 3.6835555555556 6.0321616161616 3.510303030303 9.4312727272727 C395.7844040404 195.39329292929 394.68476767677 198.82925252525 392.1014949495 201.42480808081z"/><glyph unicode="&#xE030;" glyph-name="down55" horiz-adv-x="512" d="M369.936 264.576L256 150.624l-113.936 113.936c-6.256 6.256 -16.384 6.256 -22.624 0 c-6.256 -6.256 -6.256 -16.368 0 -22.624l122.512 -122.512c3.84 -3.84 9.088 -5.024 14.064 -4.16c4.96 -0.88 10.224 0.32 14.064 4.16l122.512 122.512 c6.256 6.256 6.256 16.368 0 22.624C386.32 270.816 376.192 270.816 369.936 264.576zM256 448C114.608 448 0 333.392 0 192s114.608 -256 256 -256 c141.392 0 256 114.624 256 256S397.392 448 256 448zM256 -32C132.288 -32 32 68.288 32 192C32 315.712 132.288 416 256 416c123.712 0 224 -100.288 224 -224 C480 68.288 379.712 -32 256 -32z"/><glyph unicode="&#xE031;" glyph-name="down56" horiz-adv-x="512" d="M337.936 184.56L272 118.624V288c0 8.832 -7.168 16 -16 16c-8.832 0 -16 -7.168 -16 -16 v-169.376l-65.936 65.936c-6.256 6.256 -16.384 6.256 -22.624 0c-6.256 -6.256 -6.256 -16.368 0 -22.624l90.512 -90.512 c3.84 -3.84 9.088 -5.024 14.064 -4.16c4.96 -0.88 10.224 0.32 14.064 4.16l90.512 90.512c6.256 6.256 6.256 16.384 0 22.624 S344.192 190.816 337.936 184.56zM448 448H64C28.656 448 0 419.344 0 384v-384c0 -35.344 28.656 -64 64 -64h384c35.344 0 64 28.656 64 64V384 C512 419.344 483.344 448 448 448zM480 0c0 -17.664 -14.336 -32 -32 -32H64c-17.68 0 -32 14.336 -32 32V384c0 17.664 14.32 32 32 32h384c17.68 0 32 -14.32 32 -32V0z"/><glyph unicode="&#xE032;" glyph-name="down58" horiz-adv-x="448" d="M101.488 147.888l110.4 -110.4c3.328 -3.328 7.76 -4.752 12.112 -4.528 c4.368 -0.224 8.784 1.2 12.112 4.528l110.384 110.4c6.256 6.24 6.256 16.384 0 22.624c-6.24 6.256 -16.384 6.256 -22.624 0L240 86.624V432 c0 8.832 -7.168 16 -16 16c-8.832 0 -16 -7.168 -16 -16v-345.376l-83.888 83.888c-6.24 6.256 -16.384 6.256 -22.624 0 C95.248 164.256 95.248 154.128 101.488 147.888zM384 384h-48v-32h48c17.664 0 32 -14.32 32 -32v-320c0 -17.68 -14.336 -32 -32 -32H64c-17.68 0 -32 14.32 -32 32V320 c0 17.68 14.32 32 32 32h48V384H64C28.656 384 0 355.344 0 320v-320c0 -35.344 28.656 -64 64 -64h320c35.344 0 64 28.656 64 64V320C448 355.344 419.344 384 384 384z"/><glyph unicode="&#xE033;" glyph-name="down59" horiz-adv-x="512" d="M448 448H64C28.656 448 0 419.344 0 384v-384c0 -35.344 28.656 -64 64 -64h384 c35.344 0 64 28.656 64 64V384C512 419.344 483.344 448 448 448zM480 0c0 -17.664 -14.32 -32 -32 -32H64c-17.68 0 -32 14.336 -32 32V384c0 17.664 14.32 32 32 32h384 c17.68 0 32 -14.32 32 -32V0zM388.224 282.96l-132.464 -132.944l-132.464 132.944c-6.288 6.32 -16.48 6.32 -22.768 0 c-6.288 -6.32 -6.288 -16.544 0 -22.864l143.04 -143.552c3.36 -3.36 7.792 -4.8 12.192 -4.576c4.384 -0.224 8.832 1.216 12.192 4.576l143.04 143.552 c6.288 6.32 6.288 16.56 0 22.864C404.688 289.28 394.512 289.28 388.224 282.96z"/><glyph unicode="&#xE034;" glyph-name="down64" horiz-adv-x="396" d="M390.78852525253 302.67862626263c-6.464 6.4969696969697 -16.951595959596 6.4969696969697 -23.415595959596 0L197.82658585859 116.64226262626L28.263434343434 302.67862626263c-6.464 6.4969696969697 -16.951595959596 6.4969696969697 -23.415595959596 0 s-6.464 -17.033696969697 0 -23.530666666667l180.42957575758 -197.97462626263c3.446303030303 -3.4631111111111 8.0303838383838 -4.9467474747475 12.532363636364 -4.7159595959596c4.5181414141414 -0.23078787878788 9.0860606060606 1.2534949494949 12.532363636364 4.7159595959596 l180.44638383838 197.99143434343C397.25252525253 285.66109090909 397.25252525253 296.18165656566 390.78852525253 302.67862626263z"/><glyph unicode="&#xE035;" glyph-name="download136" horiz-adv-x="683" d="M454.29333333333 183.72266666667L362.66666666667 92.501333333333V298.34666666667c0 11.797333333333 -9.5573333333333 21.354666666667 -21.333333333333 21.354666666667 c-11.776 0 -21.333333333333 -9.5573333333333 -21.333333333333 -21.354666666667v-205.184l-90.965333333333 90.56c-8.384 8.3413333333333 -21.973333333333 8.3413333333333 -30.357333333333 0c-8.384 -8.3413333333333 -8.384 -21.888 0 -30.229333333333l126.72 -126.144 c4.48 -4.4586666666667 10.389333333333 -6.3573333333333 16.256 -6.0586666666667c5.8453333333333 -0.29866666666667 11.776 1.6 16.256 6.0586666666667l126.72 126.144c8.384 8.3413333333333 8.384 21.888 0 30.229333333333 C476.26666666667 192.064 462.67733333333 192.064 454.29333333333 183.72266666667zM492.096 340.71466666667C460.77866666667 404.224 395.584 448 320 448c-101.312 0 -184.10666666667 -78.528 -191.296 -178.02666666667 C54.229333333333 248.74666666667 0 183.68 0 106.66666666667c0 -90.858666666667 75.52 -164.928 170.66666666667 -170.15466666667L533.33333333333 -64c73.301333333333 31.829333333333 149.33333333333 120.512 149.33333333333 202.66666666667C682.66666666667 246.50666666667 598.35733333333 334.42133333333 492.096 340.71466666667zM533.33333333333 -21.333333333333H170.66666666667c0 0 -128.81066666667 13.226666666667 -128 128c0.448 64.768 57.344 124.11733333333 128 128c0 88.362666666667 56.554666666667 170.66666666667 149.33333333333 170.66666666667c73.237333333333 0 122.09066666667 -44.693333333333 139.47733333333 -106.944 C565.184 302.99733333333 636.672 219.37066666667 640 149.33333333333C642.88 89.024 590.50666666667 11.114666666667 533.33333333333 -21.333333333333z"/><glyph unicode="&#xE036;" glyph-name="download142" horiz-adv-x="480" d="M416 448H64C28.656 448 0 419.344 0 384v-384c0 -35.344 28.656 -64 64 -64h352 c35.344 0 64 28.656 64 64V384C480 419.344 451.344 448 416 448zM448 0c0 -17.664 -14.32 -32 -32 -32H64c-17.68 0 -32 14.336 -32 32v32h416V0zM448 64H32V384 c0 17.68 14.32 32 32 32h352c17.68 0 32 -14.32 32 -32V64zM308.272 235.488L256 172.24V368c0 8.832 -7.168 16 -16 16c-8.832 0 -16 -7.168 -16 -16v-196.368 l-52.768 63.856c-6.272 6.288 -16.448 6.288 -22.72 0c-6.272 -6.288 -6.272 -16.496 0 -22.784l79.072 -95.68c3.344 -3.36 7.792 -4.784 12.16 -4.56 c4.384 -0.224 8.816 1.2 12.16 4.56l79.072 95.68c6.272 6.288 6.272 16.496 0 22.784S314.544 241.776 308.272 235.488z"/><glyph unicode="&#xE037;" glyph-name="download146" horiz-adv-x="591" d="M379.35333025688 87.68620212275L315.02845716044 9.7166589755422V290.44639286264C315.02845716044 301.33456391324 306.20766035994 310.17504999231 295.33917858791 310.17504999231 c-10.868481772035 0 -19.689278572527 -8.8404860790648 -19.689278572527 -19.728657129672v-281.47792647285L210.69497000461 87.68620212275c-7.7181972004307 7.7575757575758 -20.240578372558 7.7575757575758 -27.958775572989 0c-7.7181972004307 -7.7575757575758 -7.7181972004307 -20.339024765421 0 -28.076911244424l97.30441470543 -117.95846792801 c4.1150592216582 -4.1347485002307 9.5886786648208 -5.8870942931857 14.963851715121 -5.6114443931703c5.3948623288725 -0.27564990001538 10.848792493463 1.4766958929395 14.963851715121 5.6114443931703l97.30441470543 117.95846792801c7.7181972004307 7.7575757575758 7.7181972004307 20.319335486848 0 28.076911244424 C399.59390862944 95.443777880326 387.07152745731 95.443777880326 379.35333025688 87.68620212275zM570.98907860329 448H19.689278572527C8.8207968004922 448 0 439.17920319951 0 428.31072142747v-157.51422858022c0 -10.868481772035 8.8207968004922 -19.689278572527 19.689278572527 -19.689278572527c10.868481772035 0 19.689278572527 8.8207968004922 19.689278572527 19.689278572527V408.62144285495h511.92124288571v-137.82495000769 c0 -10.868481772035 8.8207968004922 -19.689278572527 19.689278572527 -19.689278572527c10.868481772035 0 19.689278572527 8.8207968004922 19.689278572527 19.689278572527V428.31072142747C590.67835717582 439.17920319951 581.85756037533 448 570.98907860329 448z"/><glyph unicode="&#xE038;" glyph-name="download147" horiz-adv-x="512" d="M243.584 69.024c3.344 -3.36 7.792 -4.784 12.16 -4.56 c4.384 -0.224 8.816 1.2 12.16 4.56l79.072 95.696c6.272 6.288 6.272 16.496 0 22.784c-6.272 6.288 -16.448 6.288 -22.72 0L272 124.24V368 c0 8.832 -7.168 16 -16 16c-8.832 0 -16 -7.168 -16 -16v-244.368l-52.768 63.872c-6.272 6.288 -16.448 6.288 -22.72 0 c-6.272 -6.288 -6.272 -16.496 0 -22.784L243.584 69.024zM448 448H64C28.656 448 0 419.344 0 384v-384c0 -35.344 28.656 -64 64 -64h384c35.344 0 64 28.656 64 64V384 C512 419.344 483.344 448 448 448zM480 0c0 -17.68 -14.32 -32 -32 -32H64c-17.68 0 -32 14.336 -32 32V384c0 17.68 14.32 32 32 32h384c17.68 0 32 -14.32 32 -32V0zM400 32H112c-8.832 0 -16 -7.168 -16 -16s7.168 -16 16 -16h288c8.832 0 16 7.168 16 16S408.832 32 400 32z"/><glyph unicode="&#xE039;" glyph-name="download148" horiz-adv-x="512" d="M337.936 200.576L272 134.624V304c0 8.832 -7.168 16 -16 16c-8.832 0 -16 -7.168 -16 -16 v-169.376l-65.936 65.936c-6.256 6.256 -16.384 6.256 -22.624 0c-6.256 -6.256 -6.256 -16.384 0 -22.624l90.512 -90.512 c3.84 -3.84 9.088 -5.024 14.064 -4.144c4.96 -0.88 10.224 0.32 14.064 4.144l90.512 90.512c6.256 6.256 6.256 16.384 0 22.624 C354.32 206.816 344.192 206.816 337.936 200.576zM256 448C114.624 448 0 333.392 0 192s114.624 -256 256 -256c141.376 0 256 114.624 256 256S397.392 448 256 448zM256 -32C132.288 -32 32 68.288 32 192S132.288 416 256 416c123.712 0 224 -100.288 224 -224S379.712 -32 256 -32z"/><glyph unicode="&#xE03A;" glyph-name="electrical17" horiz-adv-x="683" d="M405.33333333333 213.33333333333l-85.333333333333 0l33.152 88.938666666667c4.5013333333333 10.88 -0.68266666666667 23.36 -11.584 27.861333333333 c-10.901333333333 4.5013333333333 -23.36 -0.68266666666667 -27.861333333333 -11.584l-48.832 -118.31466666667c-2.3253333333333 -5.632 -1.984 -11.648 0.32 -16.789333333333c3.1146666666667 -7.936 10.730666666667 -13.610666666667 19.776 -13.610666666667 l91.008 0.64l-54.250666666667 -96.213333333333c-4.6293333333333 -11.178666666667 -0.10666666666667 -24.362666666667 10.112 -29.44c10.218666666667 -5.0773333333333 22.250666666667 -0.10666666666667 26.901333333333 11.072c0 0 67.925333333333 123.456 67.925333333333 136.10666666667 C426.66666666667 203.776 417.10933333333 213.33333333333 405.33333333333 213.33333333333zM492.096 340.71466666667C460.77866666667 404.224 395.584 448 320 448c-101.312 0 -184.10666666667 -78.528 -191.296 -178.02666666667C54.229333333333 248.74666666667 0 183.68 0 106.66666666667 c0 -90.858666666667 75.52 -164.928 170.66666666667 -170.15466666667C170.66666666667 -63.488 465.728 -64 469.33333333333 -64c111.936 0 213.33333333333 90.730666666667 213.33333333333 202.66666666667C682.66666666667 246.50666666667 598.35733333333 334.42133333333 492.096 340.71466666667zM469.33333333333 -21.333333333333 c-2.7093333333333 0 -298.66666666667 0 -298.66666666667 0s-128.81066666667 13.226666666667 -128 128c0.448 64.768 59.989333333333 122.66666666667 128 128c0 88.362666666667 56.554666666667 170.66666666667 149.33333333333 170.66666666667c73.237333333333 0 122.09066666667 -44.693333333333 139.47733333333 -106.944 C565.184 302.99733333333 636.672 219.37066666667 640 149.33333333333C644.48 55.189333333333 546.15466666667 -21.333333333333 469.33333333333 -21.333333333333z"/><glyph unicode="&#xE03B;" glyph-name="electronic57" horiz-adv-x="745" d="M651.63636363636 448H93.090909090909C41.681454545455 448 0 406.31854545455 0 354.90909090909v-325.81818181818c0 -51.409454545455 41.681454545455 -93.090909090909 93.090909090909 -93.090909090909h558.54545454545 c51.409454545455 0 93.090909090909 41.681454545455 93.090909090909 93.090909090909V354.90909090909C744.72727272727 406.31854545455 703.04581818182 448 651.63636363636 448zM698.18181818182 29.090909090909c0 -25.716363636364 -20.829090909091 -46.545454545455 -46.545454545455 -46.545454545455H93.090909090909c-25.716363636364 0 -46.545454545455 20.829090909091 -46.545454545455 46.545454545455V354.90909090909c0 25.716363636364 20.829090909091 46.545454545455 46.545454545455 46.545454545455h558.54545454545 c25.716363636364 0 46.545454545455 -20.829090909091 46.545454545455 -46.545454545455V29.090909090909zM116.36363636364 215.27272727273c-12.846545454545 0 -23.272727272727 -10.426181818182 -23.272727272727 -23.272727272727c0 -12.846545454545 10.426181818182 -23.272727272727 23.272727272727 -23.272727272727c12.846545454545 0 23.272727272727 10.426181818182 23.272727272727 23.272727272727C139.63636363636 204.84654545455 129.21018181818 215.27272727273 116.36363636364 215.27272727273zM116.36363636364 122.18181818182 c-12.846545454545 0 -23.272727272727 -10.426181818182 -23.272727272727 -23.272727272727c0 -12.846545454545 10.426181818182 -23.272727272727 23.272727272727 -23.272727272727c12.846545454545 0 23.272727272727 10.426181818182 23.272727272727 23.272727272727C139.63636363636 111.75563636364 129.21018181818 122.18181818182 116.36363636364 122.18181818182zM628.36363636364 122.18181818182c-12.846545454545 0 -23.272727272727 -10.426181818182 -23.272727272727 -23.272727272727 c0 -12.846545454545 10.426181818182 -23.272727272727 23.272727272727 -23.272727272727c12.846545454545 0 23.272727272727 10.426181818182 23.272727272727 23.272727272727C651.63636363636 111.75563636364 641.21018181818 122.18181818182 628.36363636364 122.18181818182zM628.36363636364 215.27272727273c-12.846545454545 0 -23.272727272727 -10.426181818182 -23.272727272727 -23.272727272727c0 -12.846545454545 10.426181818182 -23.272727272727 23.272727272727 -23.272727272727 c12.846545454545 0 23.272727272727 10.426181818182 23.272727272727 23.272727272727C651.63636363636 204.84654545455 641.21018181818 215.27272727273 628.36363636364 215.27272727273zM535.27272727273 354.90909090909H209.45454545455C196.608 354.90909090909 186.18181818182 344.48290909091 186.18181818182 331.63636363636v-279.27272727273c0 -12.846545454545 10.426181818182 -23.272727272727 23.272727272727 -23.272727272727h325.81818181818c12.846545454545 0 23.272727272727 10.426181818182 23.272727272727 23.272727272727V331.63636363636 C558.54545454545 344.48290909091 548.11927272727 354.90909090909 535.27272727273 354.90909090909zM512 98.909090909091c0 -12.846545454545 -10.426181818182 -23.272727272727 -23.272727272727 -23.272727272727H256c-12.846545454545 0 -23.272727272727 10.426181818182 -23.272727272727 23.272727272727V285.09090909091c0 12.846545454545 10.426181818182 23.272727272727 23.272727272727 23.272727272727h232.72727272727c12.846545454545 0 23.272727272727 -10.426181818182 23.272727272727 -23.272727272727V98.909090909091z"/><glyph unicode="&#xE03C;" glyph-name="email64" horiz-adv-x="683" d="M597.33333333333 448H85.333333333333C38.208 448 0 409.792 0 362.66666666667v-341.33333333333c0 -47.125333333333 38.208 -85.333333333333 85.333333333333 -85.333333333333h512 c47.125333333333 0 85.333333333333 38.208 85.333333333333 85.333333333333V362.66666666667C682.66666666667 409.792 644.45866666667 448 597.33333333333 448zM618.66666666667 405.33333333333L341.33333333333 192L64 405.33333333333H618.66666666667zM42.666666666667 21.333333333333L42.666666666667 362.66666666667l192 -149.33333333333l-189.97333333333 -204.33066666667C43.498666666667 12.928 42.666666666667 17.002666666667 42.666666666667 21.333333333333zM75.84 -20.202666666667l192.53333333333 205.14133333333L341.33333333333 129.81333333333l69.824 55.488l195.66933333333 -205.48266666667C603.75466666667 -20.885333333333 78.912 -20.885333333333 75.84 -20.202666666667zM637.97333333333 8.9813333333333L448 213.33333333333 l192 149.33333333333l0 -341.33333333333C640 17.002666666667 639.168 12.928 637.97333333333 8.9813333333333z"/><glyph unicode="&#xE03D;" glyph-name="email67" horiz-adv-x="480" d="M416 448H64C28.656 448 0 419.344 0 384v-384c0 -35.344 28.656 -64 64 -64h352 c35.344 0 64 28.656 64 64V384C480 419.344 451.344 448 416 448zM64 416h352c6.368 0 12.272 -1.92 17.264 -5.12L368 352H112L46.736 410.88C51.728 414.08 57.632 416 64 416 zM448 0c0 -17.68 -14.32 -32 -32 -32H64c-17.68 0 -32 14.336 -32 32V380.464L96 320h288l64 60.448V0z"/><glyph unicode="&#xE03E;" glyph-name="equalization3" horiz-adv-x="549" d="M109.71428571429 226.72457142857V429.71428571429c0 10.093714285714 -8.192 18.285714285714 -18.285714285714 18.285714285714S73.142857142857 439.808 73.142857142857 429.71428571429v-202.98971428571 C31.414857142857 218.25828571429 0 181.376 0 137.14285714286c0 -44.233142857143 31.414857142857 -81.115428571429 73.142857142857 -89.581714285714V-45.714285714286c0 -10.093714285714 8.192 -18.285714285714 18.285714285714 -18.285714285714s18.285714285714 8.192 18.285714285714 18.285714285714v93.275428571429c41.728 8.4662857142857 73.142857142857 45.348571428571 73.142857142857 89.581714285714 C182.85714285714 181.376 151.44228571429 218.25828571429 109.71428571429 226.72457142857zM91.428571428571 82.285714285714c-30.299428571429 0 -54.857142857143 24.557714285714 -54.857142857143 54.857142857143c0 30.299428571429 24.557714285714 54.857142857143 54.857142857143 54.857142857143s54.857142857143 -24.557714285714 54.857142857143 -54.857142857143C146.28571428571 106.84342857143 121.728 82.285714285714 91.428571428571 82.285714285714zM292.57142857143 409.58171428571V429.71428571429c0 10.093714285714 -8.192 18.285714285714 -18.285714285714 18.285714285714c-10.093714285714 0 -18.285714285714 -8.192 -18.285714285714 -18.285714285714v-20.132571428571C214.272 401.11542857143 182.85714285714 364.23314285714 182.85714285714 320s31.414857142857 -81.115428571429 73.142857142857 -89.581714285714V-45.714285714286 c0 -10.093714285714 8.192 -18.285714285714 18.285714285714 -18.285714285714c10.093714285714 0 18.285714285714 8.192 18.285714285714 18.285714285714V230.41828571429c41.728 8.4662857142857 73.142857142857 45.348571428571 73.142857142857 89.581714285714S334.29942857143 401.11542857143 292.57142857143 409.58171428571zM274.28571428571 265.14285714286c-30.299428571429 0 -54.857142857143 24.557714285714 -54.857142857143 54.857142857143 c0 30.299428571429 24.557714285714 54.857142857143 54.857142857143 54.857142857143c30.299428571429 0 54.857142857143 -24.557714285714 54.857142857143 -54.857142857143C329.14285714286 289.70057142857 304.58514285714 265.14285714286 274.28571428571 265.14285714286zM475.42857142857 153.58171428571V429.71428571429c0 10.093714285714 -8.192 18.285714285714 -18.285714285714 18.285714285714c-10.093714285714 0 -18.285714285714 -8.192 -18.285714285714 -18.285714285714 v-276.13257142857c-41.728 -8.4662857142857 -73.142857142857 -45.348571428571 -73.142857142857 -89.581714285714c0 -44.233142857143 31.414857142857 -81.115428571429 73.142857142857 -89.581714285714V-45.714285714286c0 -10.093714285714 8.192 -18.285714285714 18.285714285714 -18.285714285714c10.093714285714 0 18.285714285714 8.192 18.285714285714 18.285714285714v20.132571428571 c41.728 8.4662857142857 73.142857142857 45.348571428571 73.142857142857 89.581714285714C548.57142857143 108.23314285714 517.15657142857 145.11542857143 475.42857142857 153.58171428571zM457.14285714286 9.1428571428571c-30.299428571429 0 -54.857142857143 24.557714285714 -54.857142857143 54.857142857143c0 30.299428571429 24.557714285714 54.857142857143 54.857142857143 54.857142857143 c30.299428571429 0 54.857142857143 -24.557714285714 54.857142857143 -54.857142857143C512 33.700571428571 487.44228571429 9.1428571428571 457.14285714286 9.1428571428571z"/><glyph unicode="&#xE03F;" glyph-name="equalizer26" horiz-adv-x="512" d="M416 320H237.744C230.608 347.552 205.792 368 176 368S121.408 347.552 114.256 320H96 C87.168 320 80 312.832 80 304c0 -8.832 7.168 -16 16 -16h18.256c7.136 -27.552 31.952 -48 61.744 -48s54.592 20.448 61.744 48H416c8.832 0 16 7.168 16 16 C432 312.832 424.832 320 416 320zM176 265.6c-21.2 0 -38.4 17.184 -38.4 38.4c0 21.2 17.2 38.4 38.4 38.4c21.216 0 38.4 -17.2 38.4 -38.4 C214.4 282.8 197.216 265.6 176 265.6zM416 64H237.744c-7.136 27.552 -31.952 48 -61.744 48s-54.592 -20.448 -61.728 -48H96c-8.832 0 -16 -7.168 -16 -16 s7.168 -16 16 -16h18.256c7.136 -27.552 31.952 -48 61.728 -48c29.792 0 54.592 20.448 61.744 48H416c8.832 0 16 7.168 16 16S424.832 64 416 64zM176 9.6 c-21.2 0 -38.4 17.2 -38.4 38.4c0 21.216 17.2 38.4 38.4 38.4c21.216 0 38.4 -17.184 38.4 -38.4C214.4 26.8 197.216 9.6 176 9.6zM416 192 h-34.256c-7.136 27.552 -31.952 48 -61.744 48c-29.792 0 -54.592 -20.448 -61.744 -48H96c-8.832 0 -16 -7.168 -16 -16c0 -8.832 7.168 -16 16 -16h162.256 c7.136 -27.552 31.952 -48 61.744 -48c29.792 0 54.592 20.448 61.744 48H416c8.832 0 16 7.168 16 16C432 184.832 424.832 192 416 192zM320 137.6 c-21.216 0 -38.4 17.2 -38.4 38.4c0 21.216 17.184 38.4 38.4 38.4c21.2 0 38.4 -17.184 38.4 -38.4C358.4 154.8 341.216 137.6 320 137.6zM448 448H64 C28.656 448 0 419.344 0 384v-384c0 -35.344 28.656 -64 64 -64h384c35.344 0 64 28.656 64 64V384C512 419.344 483.344 448 448 448zM480 0c0 -17.664 -14.32 -32 -32 -32H64 c-17.68 0 -32 14.336 -32 32V384c0 17.68 14.32 32 32 32h384c17.68 0 32 -14.336 32 -32V0z"/><glyph unicode="&#xE040;" glyph-name="event6" horiz-adv-x="480" d="M416 448H64C28.656 448 0 419.344 0 384v-384c0 -35.344 28.656 -64 64 -64h352 c35.344 0 64 28.656 64 64V384C480 419.344 451.344 448 416 448zM448 0c0 -17.68 -14.32 -32 -32 -32H64c-17.68 0 -32 14.32 -32 32V320h416V0zM448 352H32V384 c0 17.68 14.32 32 32 32h352c17.68 0 32 -14.336 32 -32V352zM368 160c26.512 0 48 21.488 48 48c0 26.512 -21.488 48 -48 48c-26.512 0 -48 -21.488 -48 -48 C320 181.488 341.488 160 368 160zM352 224h32v-32h-32V224zM368 32c26.512 0 48 21.488 48 48c0 26.512 -21.488 48 -48 48c-26.512 0 -48 -21.488 -48 -48 C320 53.488 341.488 32 368 32zM352 96h32v-32h-32V96zM112 160c26.512 0 48 21.488 48 48c0 26.512 -21.488 48 -48 48c-26.512 0 -48 -21.488 -48 -48 C64 181.488 85.488 160 112 160zM96 224h32v-32H96V224zM240 160c26.512 0 48 21.488 48 48c0 26.512 -21.488 48 -48 48c-26.512 0 -48 -21.488 -48 -48 C192 181.488 213.488 160 240 160zM224 224h32v-32h-32V224zM112 32c26.512 0 48 21.488 48 48c0 26.512 -21.488 48 -48 48c-26.512 0 -48 -21.488 -48 -48 C64 53.488 85.488 32 112 32zM96 96h32v-32H96V96zM240 32c26.512 0 48 21.488 48 48c0 26.512 -21.488 48 -48 48c-26.512 0 -48 -21.488 -48 -48 C192 53.488 213.488 32 240 32zM224 96h32v-32h-32V96z"/><glyph unicode="&#xE041;" glyph-name="expand25" horiz-adv-x="512" d="M224 32l-106.064 0l108.784 108.784l-22.624 22.624l-108.608 -108.608L96 160 c0 8.832 -7.168 16 -16 16s-16 -7.168 -16 -16v-144c0 -4.736 1.952 -8.56 5.056 -11.184C71.952 1.856 75.984 0 80.448 0L224 0c8.832 0 16 7.168 16 16 C240 24.832 232.832 32 224 32zM448 448H64C28.656 448 0 419.344 0 384v-384c0 -35.344 28.656 -64 64 -64h384c35.344 0 64 28.656 64 64V384 C512 419.344 483.344 448 448 448zM480 0c0 -17.664 -14.32 -32 -32 -32H64c-17.68 0 -32 14.32 -32 32V384c0 17.664 14.32 32 32 32h384c17.68 0 32 -14.32 32 -32V0zM431.552 384L288 384c-8.832 0 -16 -7.168 -16 -16c0 -8.832 7.168 -16 16 -16l106.064 0l-108.784 -108.784l22.624 -22.624l108.608 108.608L416 224 c0 -8.832 7.168 -16 16 -16c8.832 0 16 7.168 16 16V368c0 4.736 -1.952 8.56 -5.056 11.2C440.048 382.16 436.016 384 431.552 384z"/><glyph unicode="&#xE042;" glyph-name="expanding2" horiz-adv-x="512" d="M204.08962219931 163.41689322209L31.503015530765 -9.1857129464704L31.999000031249 96.010999656261c0 8.8317240086247 -7.1677760069998 15.999500015625 -15.999500015625 15.999500015625 c-8.8317240086247 0 -15.999500015625 -7.1677760069998 -15.999500015625 -15.999500015625v-143.99550014062c0 -4.7358520046249 1.9519390019062 -8.5597325083591 5.0558420049373 -11.183650510922c2.895909502828 -2.9599075028905 6.9277835067654 -4.815849504703 11.40764351114 -4.815849504703L159.99500015625 -63.984000499984c8.8317240086247 0 15.999500015625 7.1677760069998 15.999500015625 15.999500015625 c0 8.8317240086247 -7.1677760069998 15.999500015625 -15.999500015625 15.999500015625l-106.06068560357 0L226.7129152214 140.77760069998L204.08962219931 163.41689322209zM506.92815849505 443.1841504953C504.03224899222 446.14405799819 500.00037498828 448 495.53651448392 448L351.98900034374 448 c-8.8317240086247 0 -15.999500015625 -7.1677760069998 -15.999500015625 -15.999500015625c0 -8.8317240086247 7.1677760069998 -15.999500015625 15.999500015625 -15.999500015625l106.04468610356 0L285.27108527859 243.22239930002l22.623293022093 -22.623293022093L480.49698446924 393.20171244649L479.98500046874 288.00499984375c0 -8.8317240086247 7.1677760069998 -15.999500015625 15.999500015625 -15.999500015625 c8.8317240086247 0 15.999500015625 7.1677760069998 15.999500015625 15.999500015625V432.00049998438C511.98400049998 436.736351989 510.03206149808 440.56023249273 506.92815849505 443.1841504953z"/><glyph unicode="&#xE043;" glyph-name="fast33" horiz-adv-x="585" d="M575.36814994992 217.8234368293L264.25983688654 441.04049220203c-20.622120475032 11.061954499928 -44.247817999714 13.680927171269 -44.266132493919 -28.918586349979v-97.158391758478 L44.266132493919 441.04049220203C23.644012018887 452.12076119617 -0.56774932036057 452.45042209186 0.01831449420518 410.98640721133v-438.48562026041c0.58606381456575 -37.453140649592 25.347259979969 -42.874230934325 44.266132493919 -30.640148805265l175.7275718987 126.09529260266v-96.022893117756 c0.01831449420518 -36.317642008871 25.365574474174 -42.306481613965 44.266132493919 -30.072399484905l311.10831306339 223.21705537273C588.3897553298 174.47302904564 589.03076262699 208.44641579625 575.36814994992 217.8234368293zM256.65932179139 -13.671769924167 c0 8.5894977822292 0 153.84175132351 0 153.84175132351l-219.99370439262 -153.84175132351v410.24467019602l219.99370439262 -153.84175132351c0 0 0 121.09543568465 0 153.84175132351l293.32493919016 -205.12233509801L256.65932179139 -13.671769924167z"/><glyph unicode="&#xE044;" glyph-name="favourites5" horiz-adv-x="512" d="M512 252.096L335.392 279.04L256 448l-79.392 -168.96L0 252.096l127.76 -130.816L97.52 -64 L256 23.52L414.48 -64l-30.256 185.28L512 252.096zM256 60.64l-118.864 -66.64l22.688 134.464l-102.336 104.464l138.416 18L256 379.008l59.552 -128.08 l137.952 -19.568l-101.328 -103.392l21.184 -134.464L256 60.64z"/><glyph unicode="&#xE045;" glyph-name="file68" horiz-adv-x="416" d="M287.95500703015 447.92001249805v-0.46392751132636c-2.0636775503828 0 -10.574347758163 0.7998750195282 -31.995000781128 0.46392751132636H63.990001562256c-35.338478362756 0 -63.990001562256 -28.6515231995 -63.990001562256 -63.990001562256v-383.94000937354 c0 -35.338478362756 28.6515231995 -63.990001562256 63.990001562256 -63.990001562256h287.95500703015c35.338478362756 0 63.990001562256 28.6515231995 63.990001562256 63.990001562256v319.95000781128L287.95500703015 447.92001249805zM383.94000937354 -0.0099984377440508c0 -17.661240431183 -14.317762849555 -31.995000781128 -31.995000781128 -31.995000781128H63.990001562256c-17.677237931573 0 -31.995000781128 14.333760349945 -31.995000781128 31.995000781128v383.94000937354 c0 17.677237931573 14.317762849555 31.995000781128 31.995000781128 31.995000781128h191.52207467583c-0.28795500703015 -38.314013435401 0.44793001093579 -63.990001562256 0.44793001093579 -63.990001562256c0 -35.338478362756 28.6515231995 -63.990001562256 63.990001562256 -63.990001562256c0 0 26.731823152632 0 63.990001562256 0V-0.0099984377440508zM319.95000781128 319.94000937354 c-17.677237931573 0 -31.995000781128 14.333760349945 -31.995000781128 31.995000781128c0 0 0 25.899953132323 0 63.990001562256l95.985002343384 -95.985002343384H319.95000781128z"/><glyph unicode="&#xE046;" glyph-name="file69" horiz-adv-x="416" d="M303.95250742072 95.97500390564H111.98250273395c-8.8306202155913 0 -15.997500390564 -7.1668801749727 -15.997500390564 -15.997500390564c0 -8.8306202155913 7.1668801749727 -15.997500390564 15.997500390564 -15.997500390564h191.97000468677 c8.8306202155913 0 15.997500390564 7.1668801749727 15.997500390564 15.997500390564C319.95000781128 88.808123730667 312.78312763631 95.97500390564 303.95250742072 95.97500390564zM287.95500703015 447.92001249805v-0.46392751132636c-2.0636775503828 0 -10.574347758163 0.7998750195282 -31.995000781128 0.46392751132636H63.990001562256c-35.338478362756 0 -63.990001562256 -28.6515231995 -63.990001562256 -63.990001562256v-383.94000937354 c0 -35.338478362756 28.6515231995 -63.990001562256 63.990001562256 -63.990001562256h287.95500703015c35.338478362756 0 63.990001562256 28.6515231995 63.990001562256 63.990001562256v319.95000781128L287.95500703015 447.92001249805zM383.94000937354 -0.0099984377440508c0 -17.661240431183 -14.317762849555 -31.995000781128 -31.995000781128 -31.995000781128H63.990001562256c-17.677237931573 0 -31.995000781128 14.333760349945 -31.995000781128 31.995000781128v383.94000937354 c0 17.677237931573 14.317762849555 31.995000781128 31.995000781128 31.995000781128h191.52207467583c-0.28795500703015 -38.314013435401 0.44793001093579 -63.990001562256 0.44793001093579 -63.990001562256c0 -35.338478362756 28.6515231995 -63.990001562256 63.990001562256 -63.990001562256c0 0 26.731823152632 0 63.990001562256 0V-0.0099984377440508zM319.95000781128 319.94000937354 c-17.677237931573 0 -31.995000781128 14.333760349945 -31.995000781128 31.995000781128c0 0 0 25.899953132323 0 63.990001562256l95.985002343384 -95.985002343384H319.95000781128zM303.95250742072 191.96000624902H111.98250273395c-8.8306202155913 0 -15.997500390564 -7.1668801749727 -15.997500390564 -15.997500390564c0 -8.8306202155913 7.1668801749727 -15.997500390564 15.997500390564 -15.997500390564h191.97000468677c8.8306202155913 0 15.997500390564 7.1668801749727 15.997500390564 15.997500390564 C319.95000781128 184.79312607405 312.78312763631 191.96000624902 303.95250742072 191.96000624902z"/><glyph unicode="&#xE047;" glyph-name="film57" horiz-adv-x="410" d="M341.33333333333 448H68.266666666667C30.5664 448 0 417.4336 0 379.73333333333v-443.73333333333c40.157866666667 0 30.5664 0 68.266666666667 0h273.06666666667 c37.700266666667 0 15.9232 0 68.266666666667 0V379.73333333333C409.6 417.4336 379.0336 448 341.33333333333 448zM68.266666666667 -29.866666666667H34.133333333333v34.133333333333h34.133333333333V-29.866666666667zM68.266666666667 38.4H34.133333333333v34.133333333333h34.133333333333V38.4zM68.266666666667 106.66666666667H34.133333333333v34.133333333333h34.133333333333V106.66666666667zM68.266666666667 174.93333333333H34.133333333333v34.133333333333h34.133333333333V174.93333333333zM68.266666666667 243.2H34.133333333333v34.133333333333 h34.133333333333V243.2zM68.266666666667 311.46666666667H34.133333333333V345.6h34.133333333333V311.46666666667zM307.2 -12.8c0 -9.4208 -7.6458666666667 -17.066666666667 -17.066666666667 -17.066666666667H119.46666666667c-9.4208 0 -17.066666666667 7.6458666666667 -17.066666666667 17.066666666667V157.86666666667c0 9.4208 7.6458666666667 17.066666666667 17.066666666667 17.066666666667h170.66666666667c9.4208 0 17.066666666667 -7.6458666666667 17.066666666667 -17.066666666667V-12.8zM307.2 226.13333333333c0 -9.4208 -7.6458666666667 -17.066666666667 -17.066666666667 -17.066666666667H119.46666666667c-9.4208 0 -17.066666666667 7.6458666666667 -17.066666666667 17.066666666667V396.8c0 9.4208 7.6458666666667 17.066666666667 17.066666666667 17.066666666667h170.66666666667c9.4208 0 17.066666666667 -7.6458666666667 17.066666666667 -17.066666666667V226.13333333333zM375.46666666667 -29.866666666667h-34.133333333333v34.133333333333h34.133333333333V-29.866666666667zM375.46666666667 38.4 h-34.133333333333v34.133333333333h34.133333333333V38.4zM375.46666666667 106.66666666667h-34.133333333333v34.133333333333h34.133333333333V106.66666666667zM375.46666666667 174.93333333333h-34.133333333333v34.133333333333h34.133333333333V174.93333333333zM375.46666666667 243.2h-34.133333333333v34.133333333333h34.133333333333V243.2zM375.46666666667 311.46666666667h-34.133333333333V345.6h34.133333333333V311.46666666667z"/><glyph unicode="&#xE048;" glyph-name="flag53" horiz-adv-x="400" d="M368 336h-96V368c0 17.68 -14.32 32 -32 32H96V416c0 17.664 -14.32 32 -32 32H32 C14.336 448 0 433.68 0 416v-448c0 -17.68 14.336 -32 32 -32h32c17.68 0 32 14.32 32 32v144h144v-16c0 -17.664 15.04 -32 32 -32h96c17.68 0 32 14.32 32 32V304 C400 321.68 385.68 336 368 336zM64 -16c0 -8.832 -7.168 -16 -16 -16c-8.832 0 -16 7.168 -16 16V400c0 8.832 7.168 16 16 16c8.832 0 16 -7.168 16 -16V-16zM240 160 c0 -8.832 -7.168 -16 -16 -16H96V368h128c8.832 0 16 -7.168 16 -16V160zM368 112c0 -8.832 -7.168 -16 -16 -16h-80V304h80c8.832 0 16 -7.168 16 -16L368 112z"/><glyph unicode="&#xE049;" glyph-name="fog10" horiz-adv-x="546" d="M290.13333333333 -29.866666666667H119.46666666667c-9.4208 0 -17.066666666667 -7.6458666666667 -17.066666666667 -17.066666666667c0 -9.4208 7.6458666666667 -17.066666666667 17.066666666667 -17.066666666667h170.66666666667c9.4208 0 17.066666666667 7.6458666666667 17.066666666667 17.066666666667 C307.2 -37.512533333333 299.55413333333 -29.866666666667 290.13333333333 -29.866666666667zM529.06666666667 106.66666666667H280.4736C276.00213333333 125.93493333333 273.06666666667 145.78346666667 273.06666666667 166.4c0 117.38453333333 76.526933333333 216.76373333333 182.34026666667 251.3408 C418.73066666667 436.97493333333 377.088 448 332.8 448C186.70933333333 448 68.266666666667 329.5744 68.266666666667 183.46666666667c0 -26.7264 4.0448 -52.48 11.4176 -76.8H17.066666666667c-9.4208 0 -17.066666666667 -7.6458666666667 -17.066666666667 -17.066666666667c0 -9.4208 7.6458666666667 -17.066666666667 17.066666666667 -17.066666666667 h512c9.4208 0 17.066666666667 7.6458666666667 17.066666666667 17.066666666667C546.13333333333 99.0208 538.48746666667 106.66666666667 529.06666666667 106.66666666667zM119.46666666667 106.66666666667c-12.1856 27.2896 -17.066666666667 47.5648 -17.066666666667 72.96C102.4 318.4128 176.96426666667 361.84746666667 238.93333333333 396.8 c45.312 21.3504 100.79573333333 25.924266666667 136.53333333333 17.066666666667c-69.973333333333 -32.853333333333 -137.65973333333 -138.93973333333 -137.65973333333 -250.45333333333c0 -19.592533333333 1.9456 -38.4512 4.8981333333333 -56.746666666667H119.46666666667zM324.26666666667 38.4H85.333333333333 c-9.4208 0 -17.066666666667 -7.6458666666667 -17.066666666667 -17.066666666667c0 -9.4208 7.6458666666667 -17.066666666667 17.066666666667 -17.066666666667h238.93333333333c9.4208 0 17.066666666667 7.6458666666667 17.066666666667 17.066666666667C341.33333333333 30.7712 333.68746666667 38.4 324.26666666667 38.4z"/><glyph unicode="&#xE04A;" glyph-name="foggy3" horiz-adv-x="549" d="M95.414857142857 155.42857142857C112.384 238.82971428571 185.80114285714 301.71428571429 274.28571428571 301.71428571429c88.484571428571 0 161.90171428571 -62.866285714286 178.87085714286 -146.28571428571h38.491428571429 C477.58628571429 258.57828571429 385.75542857143 338.28571428571 274.28571428571 338.28571428571C162.816 338.28571428571 70.985142857143 258.57828571429 56.941714285714 155.42857142857H95.414857142857zM54.857142857143 294.144c7.1497142857143 -7.1497142857143 18.724571428571 -7.1497142857143 25.856 0 c7.1497142857143 7.1497142857143 7.1497142857143 18.724571428571 0 25.856L54.857142857143 345.856c-7.1497142857143 7.1497142857143 -18.724571428571 7.1497142857143 -25.856 0S21.851428571429 327.13142857143 29.001142857143 320L54.857142857143 294.144zM493.71428571429 294.144L519.57028571429 320 c7.1497142857143 7.1497142857143 7.1497142857143 18.724571428571 0 25.856s-18.724571428571 7.1497142857143 -25.856 0L467.85828571429 320c-7.1497142857143 -7.1497142857143 -7.1497142857143 -18.724571428571 0 -25.856 C474.98971428571 286.99428571429 486.56457142857 286.99428571429 493.71428571429 294.144zM274.28571428571 374.85714285714c10.093714285714 0 18.285714285714 8.192 18.285714285714 18.285714285714V429.71428571429c0 10.093714285714 -8.192 18.285714285714 -18.285714285714 18.285714285714c-10.093714285714 0 -18.285714285714 -8.192 -18.285714285714 -18.285714285714v-36.571428571429 C256 383.04914285714 264.192 374.85714285714 274.28571428571 374.85714285714zM530.28571428571 118.85714285714H18.285714285714c-10.093714285714 0 -18.285714285714 -8.192 -18.285714285714 -18.285714285714c0 -10.093714285714 8.192 -18.285714285714 18.285714285714 -18.285714285714h512c10.093714285714 0 18.285714285714 8.192 18.285714285714 18.285714285714C548.57142857143 110.66514285714 540.37942857143 118.85714285714 530.28571428571 118.85714285714zM457.14285714286 -27.428571428571H91.428571428571c-10.093714285714 0 -18.285714285714 -8.192 -18.285714285714 -18.285714285714s8.192 -18.285714285714 18.285714285714 -18.285714285714h365.71428571429c10.093714285714 0 18.285714285714 8.192 18.285714285714 18.285714285714S467.23657142857 -27.428571428571 457.14285714286 -27.428571428571zM512 45.714285714286H36.571428571429c-10.093714285714 0 -18.285714285714 -8.192 -18.285714285714 -18.285714285714 c0 -10.093714285714 8.192 -18.285714285714 18.285714285714 -18.285714285714h475.42857142857c10.093714285714 0 18.285714285714 8.192 18.285714285714 18.285714285714C530.28571428571 37.522285714286 522.09371428571 45.714285714286 512 45.714285714286z"/><glyph unicode="&#xE04B;" glyph-name="folder173" horiz-adv-x="512" d="M448 384H224c0 35.344 -28.656 64 -64 64H64C28.656 448 0 419.344 0 384v-384 c0 -35.344 28.656 -64 64 -64h384c35.344 0 64 28.656 64 64V320C512 355.344 483.344 384 448 384zM480 0c0 -17.68 -14.32 -32 -32 -32H64c-17.68 0 -32 14.336 -32 32V256h448 V0zM480 288H32V384c0 17.68 14.32 32 32 32h96c17.68 0 32 -14.32 32 -32v-32h256c17.68 0 32 -14.336 32 -32V288z"/><glyph unicode="&#xE04C;" glyph-name="fork34" horiz-adv-x="160" d="M144 448C135.168 448 128 440.832 128 432v-112c0 -22.512 -13.392 -37.696 -32 -44.832V432 c0 8.832 -7.168 16 -16 16C71.168 448 64 440.832 64 432v-156.832C45.392 282.304 32 297.488 32 320l0 112c0 8.832 -7.168 16 -16 16S0 440.832 0 432l0 -112 c0 -38.704 27.488 -70.976 64 -78.4V-48c0 -8.832 7.168 -16 16 -16c8.832 0 16 7.168 16 16V241.6c36.512 7.408 64 39.696 64 78.4V432C160 440.832 152.832 448 144 448z"/><glyph unicode="&#xE04D;" glyph-name="four87" horiz-adv-x="512" d="M146.28571428571 155.42857142857H73.142857142857c-40.393142857143 0 -73.142857142857 -32.749714285714 -73.142857142857 -73.142857142857v-73.142857142857c0 -40.393142857143 32.749714285714 -73.142857142857 73.142857142857 -73.142857142857h73.142857142857c40.393142857143 0 73.142857142857 32.749714285714 73.142857142857 73.142857142857 v73.142857142857C219.42857142857 122.67885714286 186.67885714286 155.42857142857 146.28571428571 155.42857142857zM182.85714285714 9.1428571428571c0 -20.187428571429 -16.365714285714 -36.571428571429 -36.571428571429 -36.571428571429H73.142857142857c-20.205714285714 0 -36.571428571429 16.365714285714 -36.571428571429 36.571428571429v73.142857142857c0 20.205714285714 16.365714285714 36.571428571429 36.571428571429 36.571428571429h73.142857142857c20.205714285714 0 36.571428571429 -16.365714285714 36.571428571429 -36.571428571429 V9.1428571428571zM438.85714285714 448h-73.142857142857c-40.393142857143 0 -73.142857142857 -32.749714285714 -73.142857142857 -73.142857142857v-73.142857142857c0 -40.393142857143 32.749714285714 -73.142857142857 73.142857142857 -73.142857142857h73.142857142857c40.393142857143 0 73.142857142857 32.749714285714 73.142857142857 73.142857142857V374.85714285714C512 415.25028571429 479.25028571429 448 438.85714285714 448zM475.42857142857 301.71428571429 c0 -20.187428571429 -16.384 -36.571428571429 -36.571428571429 -36.571428571429h-73.142857142857c-20.205714285714 0 -36.571428571429 16.384 -36.571428571429 36.571428571429V374.85714285714c0 20.205714285714 16.365714285714 36.571428571429 36.571428571429 36.571428571429h73.142857142857c20.205714285714 0 36.571428571429 -16.365714285714 36.571428571429 -36.571428571429V301.71428571429zM438.85714285714 155.42857142857h-73.142857142857c-40.393142857143 0 -73.142857142857 -32.749714285714 -73.142857142857 -73.142857142857v-73.142857142857 c0 -40.393142857143 32.749714285714 -73.142857142857 73.142857142857 -73.142857142857h73.142857142857c40.393142857143 0 73.142857142857 32.749714285714 73.142857142857 73.142857142857v73.142857142857C512 122.67885714286 479.25028571429 155.42857142857 438.85714285714 155.42857142857zM475.42857142857 9.1428571428571c0 -20.187428571429 -16.384 -36.571428571429 -36.571428571429 -36.571428571429h-73.142857142857c-20.205714285714 0 -36.571428571429 16.365714285714 -36.571428571429 36.571428571429 v73.142857142857c0 20.205714285714 16.365714285714 36.571428571429 36.571428571429 36.571428571429h73.142857142857c20.205714285714 0 36.571428571429 -16.365714285714 36.571428571429 -36.571428571429V9.1428571428571zM146.28571428571 448H73.142857142857C32.749714285714 448 0 415.25028571429 0 374.85714285714v-73.142857142857c0 -40.393142857143 32.749714285714 -73.142857142857 73.142857142857 -73.142857142857h73.142857142857c40.393142857143 0 73.142857142857 32.749714285714 73.142857142857 73.142857142857V374.85714285714 C219.42857142857 415.25028571429 186.67885714286 448 146.28571428571 448zM182.85714285714 301.71428571429c0 -20.187428571429 -16.365714285714 -36.571428571429 -36.571428571429 -36.571428571429H73.142857142857c-20.205714285714 0 -36.571428571429 16.384 -36.571428571429 36.571428571429V374.85714285714c0 20.205714285714 16.365714285714 36.571428571429 36.571428571429 36.571428571429h73.142857142857c20.205714285714 0 36.571428571429 -16.365714285714 36.571428571429 -36.571428571429V301.71428571429z"/><glyph unicode="&#xE04E;" glyph-name="full40" horiz-adv-x="512" d="M204.096 163.408l-76.448 -76.448L128 128c0 8.832 -7.168 16 -16 16 c-8.832 0 -16 -7.168 -16 -16v-80c0 -4.736 1.952 -8.56 5.056 -11.2C103.952 33.84 107.984 32 112.448 32L192 32c8.832 0 16 7.168 16 16 c0 8.832 -7.168 16 -16 16l-42.064 0l76.784 76.784L204.096 163.408zM192 320c8.832 0 16 7.168 16 16c0 8.832 -7.168 16 -16 16L112.448 352 C107.984 352 103.952 350.144 101.056 347.2C97.952 344.56 96 340.736 96 336v-80c0 -8.832 7.168 -16 16 -16c8.832 0 16 7.168 16 16L127.648 297.056l76.448 -76.448 l22.624 22.624L149.952 320L192 320zM400 144c-8.832 0 -16 -7.168 -16 -16l0.352 -41.056l-76.448 76.448l-22.624 -22.624L362.064 64L320 64 c-8.832 0 -16 -7.168 -16 -16c0 -8.832 7.168 -16 16 -16l79.552 0c4.48 0 8.496 1.856 11.392 4.816C414.048 39.44 416 43.264 416 48v80 C416 136.832 408.832 144 400 144zM399.552 352L320 352c-8.832 0 -16 -7.168 -16 -16c0 -8.832 7.168 -16 16 -16l42.048 0l-76.784 -76.784l22.624 -22.624 l76.448 76.448L384 256c0 -8.832 7.168 -16 16 -16c8.832 0 16 7.168 16 16V336c0 4.736 -1.968 8.56 -5.056 11.2C408.048 350.144 404.016 352 399.552 352zM448 448H64C28.656 448 0 419.344 0 384v-384c0 -35.344 28.656 -64 64 -64h384c35.344 0 64 28.656 64 64V384C512 419.344 483.344 448 448 448zM480 0 c0 -17.68 -14.32 -32 -32 -32H64c-17.68 0 -32 14.32 -32 32V384c0 17.664 14.32 32 32 32h384c17.68 0 32 -14.336 32 -32V0z"/></font>
</defs>
</svg>
