<?xml version="1.0" standalone="no"?>
<!DOCTYPE svg PUBLIC "-//W3C//DTD SVG 1.1//EN" "http://www.w3.org/Graphics/SVG/1.1/DTD/svg11.dtd">
<svg xmlns="http://www.w3.org/2000/svg"><defs><font id="flaticon" horiz-adv-x="512"><font-face units-per-em="512" ascent="448" descent="-64" x-height="240" cap-height="480"/><missing-glyph horiz-adv-x="512"/><glyph unicode="&#xE000;" glyph-name="arrows92" horiz-adv-x="703" d="M696.78933333333 206.464c-8.704 8.704 -22.826666666667 8.704 -31.530666666667 0l-49.664 -49.664 c1.664 11.52 2.7306666666667 23.232 2.7306666666667 35.221333333333c0 141.376 -114.624 256 -256 256c-82.069333333333 0 -154.944 -38.784 -201.792 -98.837333333333l33.301333333333 -26.645333333333 C232.85333333333 372.82133333333 293.71733333333 405.33333333333 362.32533333333 405.33333333333c117.824 0 213.33333333333 -95.509333333333 213.33333333333 -213.33333333333c0 -12.693333333333 -1.3866666666667 -25.024 -3.52 -37.098666666667l-64.746666666667 51.562666666667 c-8.704 8.704 -22.826666666667 8.704 -31.530666666667 0c-8.704 -8.704 -8.704 -22.826666666667 0 -31.530666666667l104.768 -83.434666666667c4.5013333333333 -4.5013333333333 10.453333333333 -6.5706666666667 16.362666666667 -6.4213333333333 c5.9093333333333 -0.17066666666667 11.861333333333 1.8986666666667 16.362666666667 6.4213333333333l83.434666666667 83.434666666667C705.49333333333 183.63733333333 705.49333333333 197.76 696.78933333333 206.464zM362.32533333333 -21.333333333333c-117.824 0 -213.33333333333 95.509333333333 -213.33333333333 213.33333333333 c0 10.261333333333 0.91733333333333 20.288 2.3253333333333 30.165333333333l44.629333333333 -44.629333333333c8.704 -8.704 22.826666666667 -8.704 31.530666666667 0c8.704 8.704 8.704 22.826666666667 0 31.530666666667L144.02133333333 292.48 C139.52 297.00266666667 133.568 299.05066666667 127.65866666667 298.90133333333C121.74933333333 299.05066666667 115.79733333333 297.00266666667 111.296 292.48l-104.768 -83.434666666667c-8.704 -8.704 -8.704 -22.826666666667 0 -31.530666666667 c8.704 -8.704 22.826666666667 -8.704 31.530666666667 0l72.597333333333 57.813333333333C108.13866666667 221.22666666667 106.32533333333 206.848 106.32533333333 192c0 -141.39733333333 114.624 -256 256 -256 c77.269333333333 0 146.38933333333 34.389333333333 193.32266666667 88.533333333333l-33.344 26.666666666667C483.22133333333 6.8266666666667 426.112 -21.333333333333 362.32533333333 -21.333333333333z"/><glyph unicode="&#xE001;" glyph-name="center12" horiz-adv-x="623" d="M22.260869565217 403.47826086957h578.78260869565c12.288 0 22.260869565217 9.9728695652174 22.260869565217 22.260869565217c0 12.288 -9.9728695652174 22.260869565217 -22.260869565217 22.260869565217H22.260869565217C9.9728695652174 448 0 438.02713043478 0 425.73913043478 C0 413.45113043478 9.9728695652174 403.47826086957 22.260869565217 403.47826086957zM601.04347826087 136.34782608696H22.260869565217c-12.288 0 -22.260869565217 -9.9728695652174 -22.260869565217 -22.260869565217c0 -12.288 9.9728695652174 -22.260869565217 22.260869565217 -22.260869565217h578.78260869565c12.288 0 22.260869565217 9.9728695652174 22.260869565217 22.260869565217C623.30434782609 126.37495652174 613.33147826087 136.34782608696 601.04347826087 136.34782608696zM111.30434782609 292.17391304348C99.016347826087 292.17391304348 89.04347826087 282.20104347826 89.04347826087 269.91304347826c0 -12.288 9.9728695652174 -22.260869565217 22.260869565217 -22.260869565217h400.69565217391c12.288 0 22.260869565217 9.9728695652174 22.260869565217 22.260869565217c0 12.288 -9.9728695652174 22.260869565217 -22.260869565217 22.260869565217H111.30434782609zM489.73913043478 -19.478260869565H155.82608695652c-12.288 0 -22.260869565217 -9.9728695652174 -22.260869565217 -22.260869565217 c0 -12.288 9.9728695652174 -22.260869565217 22.260869565217 -22.260869565217h333.91304347826c12.288 0 22.260869565217 9.9728695652174 22.260869565217 22.260869565217C512 -29.451130434783 502.02713043478 -19.478260869565 489.73913043478 -19.478260869565z"/><glyph unicode="&#xE002;" glyph-name="chat57" horiz-adv-x="546" d="M358.25669732107 209.16220178595H187.65827002532c-9.4170331867253 0 -17.059842729575 -7.6428095428495 -17.059842729575 -17.059842729575s7.6428095428495 -17.059842729575 17.059842729575 -17.059842729575h170.59842729575c9.4170331867253 0 17.059842729575 7.6428095428495 17.059842729575 17.059842729575 S367.6737305078 209.16220178595 358.25669732107 209.16220178595zM494.73543915767 448H51.179528188725C22.911368785819 448 0 425.08863121418 0 396.82047181128v-341.1968545915c0 -28.268159402906 22.911368785819 -51.179528188725 51.179528188725 -51.179528188725h153.33386645342L272.9574836732 -64L341.40157270425 4.4440890310543H494.73543915767c28.268159402906 0 51.179528188725 22.911368785819 51.179528188725 51.179528188725V396.82047181128 C545.91496734639 425.08863121418 523.00359856058 448 494.73543915767 448zM511.79528188725 72.683459949354c0 -18.85112621618 -15.268559242969 -34.11968545915 -34.11968545915 -34.11968545915h-153.33386645342L272.9574836732 -12.820471811275L221.57323737172 38.563774490204H68.239370918299c-18.85112621618 0 -34.11968545915 15.268559242969 -34.11968545915 34.11968545915V379.7606290817c0 18.85112621618 15.268559242969 34.11968545915 34.11968545915 34.11968545915 h409.4362255098c18.85112621618 0 34.11968545915 -15.268559242969 34.11968545915 -34.11968545915V72.683459949354zM426.49606823937 311.5212581634H119.41889910702C110.0018659203 311.5212581634 102.35905637745 303.87844862055 102.35905637745 294.46141543383s7.6428095428495 -17.059842729575 17.059842729575 -17.059842729575h307.07716913235c9.4170331867253 0 17.059842729575 7.6428095428495 17.059842729575 17.059842729575S435.9131014261 311.5212581634 426.49606823937 311.5212581634z"/><glyph unicode="&#xE003;" glyph-name="checkmark17" horiz-adv-x="512" d="M365.344 283.44L216 134.096l-69.328 69.344c-6.096 6.096 -16 6.096 -22.096 0 c-6.096 -6.096 -6.096 -16 0 -22.096l78.48 -78.48c0.528 -0.752 0.848 -1.616 1.52 -2.288c3.152 -3.152 7.296 -4.608 11.424 -4.496 c4.128 -0.096 8.288 1.344 11.44 4.496c0.672 0.672 0.992 1.536 1.52 2.288l158.48 158.48c6.096 6.096 6.096 16 0 22.096 C381.328 289.536 371.44 289.536 365.344 283.44zM256 448C114.608 448 0 333.392 0 192c0 -141.392 114.608 -256 256 -256c141.376 0 256 114.608 256 256 C512 333.392 397.392 448 256 448zM256 -32C132.288 -32 32 68.288 32 192C32 315.712 132.288 416 256 416c123.712 0 224 -100.288 224 -224C480 68.288 379.712 -32 256 -32z"/><glyph unicode="&#xE004;" glyph-name="croos" horiz-adv-x="512" d="M256 448C114.608 448 0 333.392 0 192c0 -141.392 114.608 -256 256 -256c141.376 0 256 114.608 256 256 C512 333.392 397.392 448 256 448zM256 -32C132.288 -32 32 68.288 32 192C32 315.712 132.288 416 256 416c123.712 0 224 -100.288 224 -224C480 68.288 379.712 -32 256 -32zM363.44 299.44c-6.096 6.096 -16 6.096 -22.096 0L256 214.096l-85.344 85.344c-6.096 6.096 -16 6.096 -22.096 0c-6.096 -6.096 -6.096 -16 0 -22.096 L233.904 192l-85.328 -85.344c-6.096 -6.096 -6.096 -16 0 -22.096c6.096 -6.096 16 -6.096 22.096 0L256 169.904l85.344 -85.344 c6.096 -6.096 16 -6.096 22.096 0c6.096 6.096 6.096 16 0 22.096L278.096 192l85.344 85.344C369.536 283.44 369.536 293.328 363.44 299.44z"/><glyph unicode="&#xE005;" glyph-name="cropping2" horiz-adv-x="512" d="M495.48387096774 35.096774193548h-66.064516129032V357.54116129032l27.928774193548 29.233548387097c6.5073548387097 6.5073548387097 6.5073548387097 17.077677419355 0 23.585032258065 c-6.5073548387097 6.5073548387097 -17.061161290323 6.5073548387097 -23.552 0L406.62709677419 381.93548387097H99.096774193548V431.48387096774c0 9.1169032258065 -7.3992258064516 16.516129032258 -16.516129032258 16.516129032258C73.463741935484 448 66.064516129032 440.60077419355 66.064516129032 431.48387096774v-49.548387096774H16.516129032258C7.3992258064516 381.93548387097 0 374.53625806452 0 365.41935483871 c0 -9.1169032258065 7.3992258064516 -16.516129032258 16.516129032258 -16.516129032258h49.548387096774v-330.32258064516c0 -1.5194838709677 0.47896774193548 -2.8903225806452 0.85883870967742 -4.2776774193548c0.16516129032258 -0.61109677419355 0.13212903225806 -1.2717419354839 0.37987096774194 -1.8663225806452 c1.6681290322581 -4.162064516129 4.9548387096774 -7.4487741935484 9.1169032258065 -9.1334193548387c0.7101935483871 -0.29729032258065 1.469935483871 -0.26425806451613 2.1966451612903 -0.44593548387097C79.921548387097 2.5269677419355 81.176774193548 2.0645161290323 82.58064516129 2.0645161290323h313.8064516129v-49.548387096774c0 -9.1169032258065 7.3992258064516 -16.516129032258 16.516129032258 -16.516129032258 c9.1169032258065 0 16.516129032258 7.3992258064516 16.516129032258 16.516129032258v49.548387096774h66.064516129032c9.1169032258065 0 16.516129032258 7.3992258064516 16.516129032258 16.516129032258C512 27.697548387097 504.60077419355 35.096774193548 495.48387096774 35.096774193548zM99.096774193548 348.90322580645h275.968L99.096774193548 60.019612903226V348.90322580645zM396.38709677419 35.096774193548H121.3935483871L396.38709677419 322.97290322581V35.096774193548z"/><glyph unicode="&#xE006;" glyph-name="drink47" horiz-adv-x="352" d="M352 448H0v-32h4.064C1.68 400.432 0 384.528 0 368c0 -125.184 70.304 -227.856 160 -238.896 V-32H96c-8.832 0 -16 -7.168 -16 -16c0 -8.832 7.168 -16 16 -16h160c8.832 0 16 7.168 16 16c0 8.832 -7.168 16 -16 16h-64V129.104 C281.696 140.144 352 242.816 352 368c0 16.528 -1.68 32.432 -4.064 48H352V448zM176 158c-81.008 0 -146.672 94.016 -146.672 210 c0 16.608 1.776 32.512 4.336 48h284.672c2.56 -15.488 4.336 -31.392 4.336 -48C322.672 252.016 257.008 158 176 158z"/><glyph unicode="&#xE007;" glyph-name="email74" horiz-adv-x="630" d="M630.04630413045 428.54549650027c0.078763172063687 5.0605338050919 -1.752480578417 10.121067610184 -5.6118760095377 13.980463041305 c-4.1153757403277 4.1153757403277 -9.5894161987539 5.789093146681 -14.965002692101 5.4149680793785H20.635951080686c-5.3755864933467 0.35443427428659 -10.849626951773 -1.3192831320668 -14.965002692101 -5.4149680793785c-3.8593954311207 -3.8593954311207 -5.6906391816014 -8.9199292362126 -5.6118760095377 -13.980463041305 C0.059072379047766 428.44704253519 0 428.36827936313 0 428.26982539805v-472.57903238212c0 -10.869317744789 8.821475271133 -19.690793015922 19.690793015922 -19.690793015922h590.72379047766c10.869317744789 0 19.690793015922 8.821475271133 19.690793015922 19.690793015922v472.57903238212C630.1053765095 428.36827936313 630.04630413045 428.44704253519 630.04630413045 428.54549650027zM557.8795477271 408.57903238212L315.05268825475 198.02538266287L72.225828782401 408.57903238212H557.8795477271zM590.72379047766 -4.9276209522344c0 -10.869317744789 -8.821475271133 -19.690793015922 -19.690793015922 -19.690793015922H59.072379047766c-10.869317744789 0 -19.690793015922 8.821475271133 -19.690793015922 19.690793015922V385.9149296208l260.41073763557 -225.77463272056 c0.43319744635028 -0.55134220444581 0.6301053765095 -1.2208291669872 1.1420659949235 -1.7327897854011c3.8987770171525 -3.8987770171525 9.0183832012922 -5.6906391816014 14.118298592416 -5.5921852165218c5.0999153911238 -0.11814475809553 10.219521575263 1.6934081993693 14.118298592416 5.5921852165218 c0.51196061841397 0.51196061841397 0.70886854857319 1.1814475809553 1.1420659949235 1.7327897854011L590.72379047766 385.9149296208V-4.9276209522344z"/><glyph unicode="&#xE008;" glyph-name="equalizer29" horiz-adv-x="512" d="M416 208h-48v32h-32v-32H96c-8.832 0 -16 -7.168 -16 -16c0 -8.832 7.168 -16 16 -16h240v-32h32v32h48 c8.832 0 16 7.168 16 16C432 200.832 424.832 208 416 208zM416 80H160v32H128v-32H96c-8.832 0 -16 -7.168 -16 -16c0 -8.832 7.168 -16 16 -16h32v-32h32v32h256 c8.832 0 16 7.168 16 16C432 72.832 424.832 80 416 80zM416 336H240V368h-32v-32H96C87.168 336 80 328.832 80 320c0 -8.832 7.168 -16 16 -16h112v-32h32V304h176 c8.832 0 16 7.168 16 16C432 328.832 424.832 336 416 336zM464 448H48C21.488 448 0 426.512 0 400v-416c0 -26.512 21.488 -48 48 -48h416c26.512 0 48 21.488 48 48V400 C512 426.512 490.512 448 464 448zM480 -16c0 -8.832 -7.168 -16 -16 -16H48c-8.832 0 -16 7.168 -16 16V400c0 8.832 7.168 16 16 16h416c8.832 0 16 -7.168 16 -16V-16z"/><glyph unicode="&#xE009;" glyph-name="file71" horiz-adv-x="416" d="M408.272 320l7.584 7.584L295.584 447.84L288 440.272V448H16C7.168 448 0 440.832 0 432v-480 c0 -8.832 7.168 -16 16 -16h384c8.832 0 16 7.168 16 16V320H408.272zM288 408.576L376.576 320H288V408.576zM384 -16c0 -8.832 -7.168 -16 -16 -16H48 c-8.832 0 -16 7.168 -16 16V400c0 8.832 7.168 16 16 16h208v-128h128V-16z"/><glyph unicode="&#xE00A;" glyph-name="folder177" horiz-adv-x="512" d="M480 384H224V416c0 17.68 -14.32 32 -32 32H32C14.32 448 0 433.68 0 416v-448 c0 -17.68 14.32 -32 32 -32h448c17.68 0 32 14.32 32 32V352C512 369.68 497.68 384 480 384zM480 -16c0 -8.832 -7.168 -16 -16 -16H48c-8.832 0 -16 7.168 -16 16V288h448 V-16zM464 320H32V400c0 8.832 7.168 16 16 16h128c8.832 0 16 -7.168 16 -16v-48h272c8.832 0 16 -7.168 16 -16C480 327.168 472.832 320 464 320z"/><glyph unicode="&#xE00B;" glyph-name="images22" horiz-adv-x="512" d="M0 320v-384h512V320H0zM480 -32H32V288h448V-32zM112 416h304c8.832 0 16 7.168 16 16 c0 8.832 -7.168 16 -16 16H112C103.168 448 96 440.832 96 432C96 423.168 103.168 416 112 416zM48 352h416c8.832 0 16 7.168 16 16c0 8.832 -7.168 16 -16 16H48 C39.168 384 32 376.832 32 368C32 359.168 39.168 352 48 352z"/><glyph unicode="&#xE00C;" glyph-name="images23" horiz-adv-x="512" d="M160 256c26.512 0 48 21.488 48 48s-21.488 48 -48 48S112 330.512 112 304S133.488 256 160 256zM144 320 h32v-32H144V320zM480 448H32C14.32 448 0 433.68 0 416v-448c0 -17.68 14.32 -32 32 -32h448c17.68 0 32 14.32 32 32V416C512 433.68 497.68 448 480 448zM480 -16 c0 -8.832 -7.168 -16 -16 -16H48c-8.832 0 -16 7.168 -16 16V400c0 8.832 7.168 16 16 16h416c8.832 0 16 -7.168 16 -16V-16zM419.2 251.376l-133.712 -148.72 L188.8 171.376c-3.52 3.52 -8.192 4.976 -12.8 4.704c-4.608 0.272 -9.28 -1.184 -12.8 -4.704L68.624 44.8c-6.528 -6.528 -6.528 -17.12 0 -23.648 c6.528 -6.528 17.12 -6.528 23.648 0l87.056 116.496l96.4 -68.496c3.376 -3.376 7.84 -4.928 12.272 -4.816 c4.432 -0.128 8.896 1.424 12.272 4.816l142.576 158.576c6.528 6.528 6.528 17.12 0 23.648C436.32 257.904 425.728 257.904 419.2 251.376z"/><glyph unicode="&#xE00D;" glyph-name="left162" horiz-adv-x="623" d="M22.260869565217 403.47826086957h578.78260869565c12.288 0 22.260869565217 9.9728695652174 22.260869565217 22.260869565217c0 12.288 -9.9728695652174 22.260869565217 -22.260869565217 22.260869565217H22.260869565217C9.9728695652174 448 0 438.02713043478 0 425.73913043478 C0 413.45113043478 9.9728695652174 403.47826086957 22.260869565217 403.47826086957zM22.260869565217 247.65217391304h400.69565217391c12.288 0 22.260869565217 9.9728695652174 22.260869565217 22.260869565217c0 12.288 -9.9728695652174 22.260869565217 -22.260869565217 22.260869565217H22.260869565217C9.9728695652174 292.17391304348 0 282.20104347826 0 269.91304347826C0 257.62504347826 9.9728695652174 247.65217391304 22.260869565217 247.65217391304zM356.17391304348 -19.478260869565H22.260869565217 c-12.288 0 -22.260869565217 -9.9728695652174 -22.260869565217 -22.260869565217c0 -12.288 9.9728695652174 -22.260869565217 22.260869565217 -22.260869565217h333.91304347826c12.288 0 22.260869565217 9.9728695652174 22.260869565217 22.260869565217C378.4347826087 -29.451130434783 368.46191304348 -19.478260869565 356.17391304348 -19.478260869565zM601.04347826087 136.34782608696H22.260869565217c-12.288 0 -22.260869565217 -9.9728695652174 -22.260869565217 -22.260869565217 c0 -12.288 9.9728695652174 -22.260869565217 22.260869565217 -22.260869565217h578.78260869565c12.288 0 22.260869565217 9.9728695652174 22.260869565217 22.260869565217C623.30434782609 126.37495652174 613.33147826087 136.34782608696 601.04347826087 136.34782608696z"/><glyph unicode="&#xE00E;" glyph-name="left163" horiz-adv-x="735" d="M703.25242051346 223.99800112437H108.51496033481l169.79249172341 169.79249172341c12.409019926291 12.409019926291 12.409019926291 32.525704291336 0 44.902742207508 c-12.409019926291 12.409019926291 -32.525704291336 12.409019926291 -44.902742207508 0L10.937847460803 216.22637266538C10.266225248298 215.68267849335 9.4346929851958 215.45880442251 8.7950527828097 214.81916422013C1.5031544756075 207.52726591292 -0.95946030357924 197.61284277594 0.31982010119308 188.08220376038 c0.15991005059654 -1.5671184958461 0.44774814167031 -2.910362920857 0.86351427322131 -4.4454994065838C2.3346867387095 179.67093509901 4.2536073458679 175.99300393529 7.0040602161284 172.63489287276c0.83153226310201 -1.0554063339372 0.83153226310201 -2.4626147791867 1.8229745768005 -3.4540570928853 c0.60765819226685 -0.60765819226685 1.4072084452495 -0.7995502529827 2.0468486476357 -1.3112624148916l222.53082641014 -222.56280842026c12.409019926291 -12.409019926291 32.525704291336 -12.409019926291 44.902742207508 0c12.409019926291 12.409019926291 12.409019926291 32.525704291336 0 44.902742207508L108.51496033481 160.03398088575 h594.70547816853c17.654069585858 0 31.982010119308 14.32794053345 31.982010119308 31.982010119308C735.23443063277 209.67006059092 720.90649009932 223.99800112437 703.25242051346 223.99800112437z"/><glyph unicode="&#xE00F;" glyph-name="map90" horiz-adv-x="565" d="M150.06896551724 341.85710344828C145.19613793103 341.85710344828 141.24137931034 336.87834482759 141.24137931034 330.752V88.364137931034 c0 -6.1263448275862 3.9547586206897 -11.105103448276 8.8275862068966 -11.105103448276S158.89655172414 82.220137931034 158.89655172414 88.364137931034V330.752C158.89655172414 336.87834482759 154.94179310345 341.85710344828 150.06896551724 341.85710344828zM291.31034482759 288.8915862069c-4.8728275862069 0 -8.8275862068966 -4.9787586206897 -8.8275862068966 -11.105103448276 V70.708965517241c0 -6.1263448275862 3.9547586206897 -11.105103448276 8.8275862068966 -11.105103448276c4.8728275862069 0 8.8275862068966 4.9787586206897 8.8275862068966 11.105103448276V277.78648275862C300.13793103448 283.91282758621 296.18317241379 288.8915862069 291.31034482759 288.8915862069zM423.72413793103 106.01931034483 c0 -6.1263448275862 3.9547586206897 -11.105103448276 8.8275862068966 -11.105103448276c4.8728275862069 0 8.8275862068966 4.9787586206897 8.8275862068966 11.105103448276V348.40717241379c0 6.1263448275862 -3.9547586206897 11.105103448276 -8.8275862068966 11.105103448276c-4.8728275862069 0 -8.8275862068966 -4.9787586206897 -8.8275862068966 -11.105103448276 V106.01931034483zM423.72413793103 448l-141.24137931034 -88.275862068966L141.24137931034 430.34482758621L0 360.11255172414V-64l141.24137931034 70.620689655172l141.24137931034 -35.310344827586l141.24137931034 52.965517241379l141.24137931034 -52.965517241379V377.37931034483L423.72413793103 448zM529.65517241379 24.275862068966l-105.93103448276 35.310344827586l-141.24137931034 -52.965517241379l-141.24137931034 35.310344827586l-105.93103448276 -52.965517241379V342.06896551724l105.93103448276 52.965517241379l141.24137931034 -70.620689655172l141.24137931034 88.275862068966l105.93103448276 -52.965517241379V24.275862068966z"/><glyph unicode="&#xE010;" glyph-name="menu47" horiz-adv-x="569" d="M540.44444444444 -7.1111111111111H28.444444444444c-15.701333333333 0 -28.444444444444 -12.743111111111 -28.444444444444 -28.444444444444s12.743111111111 -28.444444444444 28.444444444444 -28.444444444444h512c15.701333333333 0 28.444444444444 12.743111111111 28.444444444444 28.444444444444 S556.14577777778 -7.1111111111111 540.44444444444 -7.1111111111111zM28.444444444444 391.11111111111h512c15.701333333333 0 28.444444444444 12.743111111111 28.444444444444 28.444444444444c0 15.701333333333 -12.743111111111 28.444444444444 -28.444444444444 28.444444444444H28.444444444444C12.743111111111 448 0 435.25688888889 0 419.55555555556C0 403.85422222222 12.743111111111 391.11111111111 28.444444444444 391.11111111111zM540.44444444444 220.44444444444H28.444444444444 C12.743111111111 220.44444444444 0 207.70133333333 0 192c0 -15.701333333333 12.743111111111 -28.444444444444 28.444444444444 -28.444444444444h512c15.701333333333 0 28.444444444444 12.743111111111 28.444444444444 28.444444444444C568.88888888889 207.70133333333 556.14577777778 220.44444444444 540.44444444444 220.44444444444z"/><glyph unicode="&#xE011;" glyph-name="minus87" horiz-adv-x="512" d="M360.304 207.616l-208.624 0c-8.624 0 -15.616 -6.992 -15.632 -15.632 c0 -8.624 6.992 -15.632 15.632 -15.632l208.624 0c8.624 0 15.616 6.992 15.632 15.632C375.936 200.624 368.944 207.632 360.304 207.616zM256 448 C114.608 448 0 333.392 0 192s114.608 -256 256 -256s256 114.608 256 256S397.392 448 256 448zM256 -32C132.288 -32 32 68.288 32 192S132.288 416 256 416s224 -100.288 224 -224 S379.712 -32 256 -32z"/><glyph unicode="&#xE012;" glyph-name="more15" horiz-adv-x="396" d="M49.454545454545 241.45454545455C22.173737373737 241.45454545455 0 219.28080808081 0 192s22.173737373737 -49.454545454545 49.454545454545 -49.454545454545S98.909090909091 164.71919191919 98.909090909091 192S76.735353535354 241.45454545455 49.454545454545 241.45454545455zM49.454545454545 167.30505050505 c-13.640404040404 0 -24.694949494949 11.054545454545 -24.694949494949 24.694949494949s11.054545454545 24.694949494949 24.694949494949 24.694949494949c13.640404040404 0 24.694949494949 -11.054545454545 24.694949494949 -24.694949494949S63.094949494949 167.30505050505 49.454545454545 167.30505050505zM346.18181818182 241.45454545455 c-27.280808080808 0 -49.454545454545 -22.173737373737 -49.454545454545 -49.454545454545s22.173737373737 -49.454545454545 49.454545454545 -49.454545454545S395.63636363636 164.71919191919 395.63636363636 192S373.46262626263 241.45454545455 346.18181818182 241.45454545455zM346.18181818182 167.30505050505 c-13.640404040404 0 -24.694949494949 11.054545454545 -24.694949494949 24.694949494949s11.054545454545 24.694949494949 24.694949494949 24.694949494949c13.640404040404 0 24.694949494949 -11.054545454545 24.694949494949 -24.694949494949S359.82222222222 167.30505050505 346.18181818182 167.30505050505zM197.81818181818 241.45454545455 c-27.280808080808 0 -49.454545454545 -22.173737373737 -49.454545454545 -49.454545454545s22.173737373737 -49.454545454545 49.454545454545 -49.454545454545s49.454545454545 22.173737373737 49.454545454545 49.454545454545S225.09898989899 241.45454545455 197.81818181818 241.45454545455zM197.81818181818 167.30505050505 c-13.640404040404 0 -24.694949494949 11.054545454545 -24.694949494949 24.694949494949s11.054545454545 24.694949494949 24.694949494949 24.694949494949c13.640404040404 0 24.694949494949 -11.054545454545 24.694949494949 -24.694949494949S211.45858585859 167.30505050505 197.81818181818 167.30505050505z"/><glyph unicode="&#xE013;" glyph-name="padlock42" horiz-adv-x="512" d="M480 336h-64.16V352h-0.688c0.304 2.4 0.688 4.784 0.688 7.28V392.544 C415.84 423.168 392.336 448 363.36 448H52.48C25.968 448 4.272 427.152 0.72 400.16H0v-112.32h0V-32c0 -17.68 14.32 -32 32 -32h448c17.68 0 32 14.32 32 32V304 C512 321.664 497.68 336 480 336zM32 336.16v32h0V400c0 8.832 7.168 16 16 16h320c8.832 0 16 -7.168 16 -16v-32c0 0 0 0 0 0V336.16H32zM480 -16 c0 -8.832 -7.168 -16 -16 -16H48c-8.832 0 -16 7.168 -16 16V288c0 8.832 7.168 16 16 16h416c8.832 0 16 -7.168 16 -16V-16zM399.744 192.256 c-26.512 0 -48 -21.488 -48 -48s21.488 -48 48 -48c26.512 0 48 21.488 48 48S426.256 192.256 399.744 192.256zM416 128h-32v32h32V128z"/><glyph unicode="&#xE014;" glyph-name="paper123" horiz-adv-x="546" d="M273.06666666667 379.73333333333L0 448v-443.73333333333l273.06666666667 -68.266666666667l273.06666666667 68.266666666667V448L273.06666666667 379.73333333333zM256 -24.9856L34.133333333333 38.4V396.8l221.86666666667 -47.547733333333V-24.9856zM512 38.4 l-221.86666666667 -63.3856V349.25226666667L512 396.8V38.4z"/><glyph unicode="&#xE015;" glyph-name="photo185" horiz-adv-x="546" d="M273.06666666667 311.46666666667c-75.400533333333 0 -136.53333333333 -61.1328 -136.53333333333 -136.53333333333s61.1328 -136.53333333333 136.53333333333 -136.53333333333c75.400533333333 0 136.53333333333 61.1328 136.53333333333 136.53333333333S348.4672 311.46666666667 273.06666666667 311.46666666667 zM273.06666666667 72.533333333333c-56.558933333333 0 -102.4 45.841066666667 -102.4 102.4s45.841066666667 102.4 102.4 102.4c56.558933333333 0 102.4 -45.841066666667 102.4 -102.4S329.6256 72.533333333333 273.06666666667 72.533333333333zM512 379.73333333333h-85.333333333333l-17.066666666667 34.133333333333c0 0 -15.291733333333 34.133333333333 -34.133333333333 34.133333333333H170.66666666667 C151.808 448 136.53333333333 413.86666666667 136.53333333333 413.86666666667L119.46666666667 379.73333333333H34.133333333333C15.274666666667 379.73333333333 0 364.45866666667 0 345.6v-375.46666666667c0 -18.858666666667 15.274666666667 -34.133333333333 34.133333333333 -34.133333333333h477.86666666667c18.858666666667 0 34.133333333333 15.274666666667 34.133333333333 34.133333333333V345.6C546.13333333333 364.45866666667 530.85866666667 379.73333333333 512 379.73333333333zM512 -12.8 c0 -9.4208 -7.6458666666667 -17.066666666667 -17.066666666667 -17.066666666667H51.2c-9.4208 0 -17.066666666667 7.6458666666667 -17.066666666667 17.066666666667V328.53333333333c0 9.4208 7.6458666666667 17.066666666667 17.066666666667 17.066666666667h86.442666666667C137.25013333333 347.01653333333 136.53333333333 348.34773333333 136.53333333333 349.86666666667l27.306666666667 42.666666666667 c0 0 12.219733333333 21.333333333333 27.306666666667 21.333333333333h163.84c15.086933333333 0 27.306666666667 -21.333333333333 27.306666666667 -21.333333333333l27.306666666667 -42.666666666667c0 -1.5189333333333 -0.7168 -2.8501333333333 -1.1093333333333 -4.2666666666667H494.93333333333c9.4208 0 17.066666666667 -7.6458666666667 17.066666666667 -17.066666666667V-12.8z"/><glyph unicode="&#xE016;" glyph-name="placeholder21" horiz-adv-x="384" d="M192 352c-44.176 0 -80 -35.824 -80 -80s35.824 -80 80 -80c44.176 0 80 35.824 80 80S236.176 352 192 352 zM192 224c-26.512 0 -48 21.488 -48 48s21.488 48 48 48c26.512 0 48 -21.488 48 -48S218.512 224 192 224zM192 448C85.968 448 0 362.032 0 256c0 -106.032 192 -320 192 -320 s192 213.968 192 320C384 362.032 298.032 448 192 448zM32 254C32 343.472 103.632 416 192 416c88.368 0 160 -72.528 160 -162C352 164.528 192 -16 192 -16 S32 164.528 32 254z"/><glyph unicode="&#xE017;" glyph-name="plus72" horiz-adv-x="512" d="M256 448C114.608 448 0 333.392 0 192s114.608 -256 256 -256c141.376 0 256 114.608 256 256 S397.392 448 256 448zM256 -32C132.288 -32 32 68.288 32 192S132.288 416 256 416c123.712 0 224 -100.288 224 -224S379.712 -32 256 -32zM360.304 207.616l-88.688 0 V296.304c0 8.624 -6.992 15.632 -15.632 15.632s-15.632 -6.992 -15.632 -15.632l0 -88.688H151.696c-8.624 0 -15.616 -6.992 -15.616 -15.632 c0 -8.624 6.992 -15.632 15.616 -15.632h88.688v-88.688c0 -8.624 6.992 -15.632 15.632 -15.632c8.624 0 15.632 6.992 15.632 15.632v88.688l88.688 0 c8.624 0 15.632 6.992 15.632 15.632C375.936 200.624 368.944 207.632 360.304 207.616z"/><glyph unicode="&#xE018;" glyph-name="printer80" horiz-adv-x="512" d="M496 352h-96V448H128v-96H16C7.168 352 0 344.832 0 336v-288c0 -8.832 7.168 -16 16 -16h112v-96h272v96h96 c8.832 0 16 7.168 16 16V336C512 344.832 504.832 352 496 352zM160 416h208v-64H160V416zM368 -32H160V128h208V-32zM480 80c0 -8.832 -7.168 -16 -16 -16h-64v96H128v-96H48 c-8.832 0 -16 7.168 -16 16V304c0 8.832 7.168 16 16 16h416c8.832 0 16 -7.168 16 -16V80zM72 272C58.752 272 48 261.248 48 248 C48 234.752 58.752 224 72 224C85.248 224 96 234.752 96 248C96 261.248 85.248 272 72 272zM152 272C138.752 272 128 261.248 128 248 C128 234.752 138.752 224 152 224c13.248 0 24 10.752 24 24C176 261.248 165.248 272 152 272z"/><glyph unicode="&#xE019;" glyph-name="recycling12" horiz-adv-x="512" d="M272 272h-32v-224h32V272zM176 240H144v-192h32V240zM368 240h-32v-192h32V240zM496 384H336V432 c0 8.832 -7.168 16 -16 16h-128c-8.832 0 -16 -7.168 -16 -16v-48H16C7.168 384 0 376.832 0 368c0 -8.832 7.168 -16 16 -16h32v-384c0 -17.68 14.336 -32 32 -32h352 c17.664 0 32 14.32 32 32V352h32c8.832 0 16 7.168 16 16C512 376.832 504.832 384 496 384zM208 416h96v-32h-96V416zM432 -16c0 -8.832 -7.168 -16 -16 -16H96 c-8.832 0 -16 7.168 -16 16V352h352V-16z"/><glyph unicode="&#xE01A;" glyph-name="right162" horiz-adv-x="623" d="M22.260869565217 403.47826086957h578.78260869565c12.288 0 22.260869565217 9.9728695652174 22.260869565217 22.260869565217c0 12.288 -9.9728695652174 22.260869565217 -22.260869565217 22.260869565217H22.260869565217C9.9728695652174 448 0 438.02713043478 0 425.73913043478 C0 413.45113043478 9.9728695652174 403.47826086957 22.260869565217 403.47826086957zM601.04347826087 292.17391304348H200.34782608696C188.05982608696 292.17391304348 178.08695652174 282.20104347826 178.08695652174 269.91304347826c0 -12.288 9.9728695652174 -22.260869565217 22.260869565217 -22.260869565217h400.69565217391c12.288 0 22.260869565217 9.9728695652174 22.260869565217 22.260869565217C623.30434782609 282.20104347826 613.33147826087 292.17391304348 601.04347826087 292.17391304348zM601.04347826087 -19.478260869565 H267.13043478261c-12.288 0 -22.260869565217 -9.9728695652174 -22.260869565217 -22.260869565217c0 -12.288 9.9728695652174 -22.260869565217 22.260869565217 -22.260869565217h333.91304347826c12.288 0 22.260869565217 9.9728695652174 22.260869565217 22.260869565217C623.30434782609 -29.451130434783 613.33147826087 -19.478260869565 601.04347826087 -19.478260869565zM601.04347826087 136.34782608696H22.260869565217c-12.288 0 -22.260869565217 -9.9728695652174 -22.260869565217 -22.260869565217 c0 -12.288 9.9728695652174 -22.260869565217 22.260869565217 -22.260869565217h578.78260869565c12.288 0 22.260869565217 9.9728695652174 22.260869565217 22.260869565217C623.30434782609 126.37495652174 613.33147826087 136.34782608696 601.04347826087 136.34782608696z"/><glyph unicode="&#xE01B;" glyph-name="right164" horiz-adv-x="735" d="M726.40739583984 214.81916422013c-0.63964020238616 0.63964020238616 -1.4711724654882 0.83153226310201 -2.1108126678743 1.4072084452495l-222.46686238991 222.46686238991 c-12.409019926291 12.409019926291 -32.525704291336 12.409019926291 -44.902742207508 0c-12.409019926291 -12.409019926291 -12.409019926291 -32.525704291336 0 -44.902742207508l169.79249172341 -169.79249172341H31.982010119308c-17.654069585858 0 -31.982010119308 -14.32794053345 -31.982010119308 -31.982010119308c0 -17.654069585858 14.32794053345 -31.982010119308 31.982010119308 -31.982010119308 h594.73746017865l-169.79249172341 -169.79249172341c-12.409019926291 -12.409019926291 -12.409019926291 -32.525704291336 0 -44.902742207508s32.525704291336 -12.409019926291 44.902742207508 0l222.53082641014 222.56280842026c0.63964020238616 0.54369417202823 1.4391904553689 0.73558623274408 2.0468486476357 1.3112624148916 c0.99144231369854 0.99144231369854 0.99144231369854 2.3666687488288 1.8229745768005 3.4540570928853c2.7184708601412 3.3581110625273 4.6373914672996 7.0360422262477 5.7887438315947 11.001811481042c0.415766131551 1.5351364857268 0.70360422262477 2.8783809107377 0.86351427322131 4.4454994065838 C736.19389093635 197.61284277594 733.73127615716 207.52726591292 726.40739583984 214.81916422013z"/><glyph unicode="&#xE01C;" glyph-name="search81" horiz-adv-x="512" d="M506.50436656023 -31.991382295233l-123.99646058554 123.99646058554C414.20136190513 129.6866079329 433.3474396953 178.24121878967 433.3474396953 231.32628015235 c0 119.66298618859 -97.010733659062 216.67371984765 -216.67371984765 216.67371984765S0 350.98926634094 0 231.32628015235s97.010733659062 -216.67371984765 216.67371984765 -216.67371984765c53.085061362675 0 101.63967221944 19.146077790174 139.32120186204 50.839533720617l123.99646058554 -123.99646058554 c7.3275112530297 -7.3275112530297 19.185473011965 -7.3275112530297 26.512984264994 0C513.83187781326 -51.176855307198 513.83187781326 -39.318893548263 506.50436656023 -31.991382295233zM216.67371984765 54.047782095179c-97.916823760243 0 -177.27849805717 79.361674296926 -177.27849805717 177.27849805717c0 97.916823760243 79.361674296926 177.27849805717 177.27849805717 177.27849805717 c97.916823760243 0 177.27849805717 -79.361674296926 177.27849805717 -177.27849805717C393.95221790482 133.40945639211 314.59054360789 54.047782095179 216.67371984765 54.047782095179z"/><glyph unicode="&#xE01D;" glyph-name="speedometer31" horiz-adv-x="512" d="M112 91.424V96H108.592C109.632 94.4 110.912 92.976 112 91.424zM308.288 287.68 c-8.32 2.368 -16.88 -2.864 -19.12 -11.68l-37.6 -148.448C227.168 125.28 208 104.992 208 80c0 -26.512 21.488 -48 48 -48c26.512 0 48 21.488 48 48 c0 16.896 -8.768 31.68 -21.968 40.24l37.28 147.216C321.552 276.256 316.608 285.312 308.288 287.68zM272 64h-32v32h32V64zM400 91.424 c1.088 1.568 2.368 2.976 3.408 4.576H400V91.424zM256 368C158.8 368 80 289.2 80 192h32c0 79.536 64.464 144 144 144s144 -64.464 144 -144h32 C432 289.2 353.2 368 256 368zM256 448C114.608 448 0 333.392 0 192c0 -141.392 114.608 -256 256 -256s256 114.608 256 256C512 333.392 397.392 448 256 448zM400 20.528 V16h-5.728c-38.096 -29.968 -86.032 -48 -138.272 -48s-100.176 18.032 -138.272 48H112v4.528C63.12 61.616 32 123.152 32 192C32 315.712 132.288 416 256 416 s224 -100.288 224 -224C480 123.152 448.88 61.616 400 20.528z"/><glyph unicode="&#xE01E;" glyph-name="squares24" horiz-adv-x="512" d="M432 384H16C7.168 384 0 376.832 0 368v-416c0 -8.832 7.168 -16 16 -16h416 c8.832 0 16 7.168 16 16V368C448 376.832 440.832 384 432 384zM416 -16c0 -8.832 -7.168 -16 -16 -16H48c-8.832 0 -16 7.168 -16 16V336c0 8.832 7.168 16 16 16h352 c8.832 0 16 -7.168 16 -16V-16zM496 448H80C71.168 448 64 440.832 64 432c0 -8.832 7.168 -16 16 -16h400v-400c0 -8.832 7.168 -16 16 -16s16 7.168 16 16V432 C512 440.832 504.832 448 496 448z"/><glyph unicode="&#xE01F;" glyph-name="sun82" horiz-adv-x="512" d="M273.06666666667 448h-34.133333333333v-68.266666666667h34.133333333333V448zM449.09226666667 360.96l-24.132266666667 24.132266666667l-48.264533333333 -48.264533333333l24.132266666667 -24.132266666667 L449.09226666667 360.96zM62.907733333333 23.057066666667l24.132266666667 -24.132266666667l48.264533333333 48.264533333333l-24.132266666667 24.132266666667L62.907733333333 23.057066666667zM135.3216 336.81066666667L87.057066666667 385.09226666667L62.907733333333 360.96l48.264533333333 -48.264533333333 L135.3216 336.81066666667zM68.266666666667 209.06666666667H0v-34.133333333333h68.266666666667V209.06666666667zM238.93333333333 -64h34.133333333333v68.266666666667h-34.133333333333V-64zM443.73333333333 209.06666666667v-34.133333333333h68.266666666667v34.133333333333H443.73333333333zM376.6784 47.189333333333l48.264533333333 -48.264533333333l24.132266666667 24.132266666667l-48.264533333333 48.264533333333 L376.6784 47.189333333333zM256 328.53333333333c-75.400533333333 0 -136.53333333333 -61.1328 -136.53333333333 -136.53333333333s61.1328 -136.53333333333 136.53333333333 -136.53333333333c75.400533333333 0 136.53333333333 61.1328 136.53333333333 136.53333333333S331.40053333333 328.53333333333 256 328.53333333333zM256 89.378133333333 c-56.6784 0 -102.62186666667 45.943466666667 -102.62186666667 102.62186666667c0 56.6784 45.943466666667 102.62186666667 102.62186666667 102.62186666667c56.6784 0 102.62186666667 -45.943466666667 102.62186666667 -102.62186666667 C358.62186666667 135.3216 312.6784 89.378133333333 256 89.378133333333z"/><glyph unicode="&#xE020;" glyph-name="user146" horiz-adv-x="479" d="M348.144 133.776c40.912 32.224 67.28 82.096 67.28 138.224 c0 97.2 -78.8 176 -176 176s-176 -78.8 -176 -176c0 -56.128 26.368 -106 67.28 -138.224C57.344 96.384 5.712 22.528 0 -64h32.048 c6.176 81.024 58.848 148.928 131.344 177.456C186.432 102.384 212.16 96 239.424 96c27.28 0 52.992 6.384 76.032 17.456 c72.496 -28.528 125.168 -96.432 131.344 -177.456h32.048C473.152 22.528 421.504 96.384 348.144 133.776zM239.424 128c-79.536 0 -144 64.464 -144 144 c0 79.536 64.464 144 144 144c79.536 0 144 -64.464 144 -144C383.424 192.464 318.96 128 239.424 128z"/><glyph unicode="&#xE021;" glyph-name="visualization5" horiz-adv-x="512" d="M182.85714285714 155.42857142857H36.571428571429c-20.205714285714 0 -36.571428571429 -16.365714285714 -36.571428571429 -36.571428571429v-146.28571428571c0 -20.205714285714 16.365714285714 -36.571428571429 36.571428571429 -36.571428571429h146.28571428571 c20.205714285714 0 36.571428571429 16.365714285714 36.571428571429 36.571428571429v146.28571428571C219.42857142857 139.06285714286 203.06285714286 155.42857142857 182.85714285714 155.42857142857zM182.85714285714 -9.1428571428571c0 -10.093714285714 -8.192 -18.285714285714 -18.285714285714 -18.285714285714H54.857142857143c-10.093714285714 0 -18.285714285714 8.192 -18.285714285714 18.285714285714v109.71428571429c0 10.093714285714 8.192 18.285714285714 18.285714285714 18.285714285714h109.71428571429 c10.093714285714 0 18.285714285714 -8.192 18.285714285714 -18.285714285714V-9.1428571428571zM475.42857142857 448h-146.28571428571c-20.205714285714 0 -36.571428571429 -16.365714285714 -36.571428571429 -36.571428571429v-146.28571428571c0 -20.205714285714 16.365714285714 -36.571428571429 36.571428571429 -36.571428571429h146.28571428571c20.205714285714 0 36.571428571429 16.365714285714 36.571428571429 36.571428571429V411.42857142857C512 431.63428571429 495.63428571429 448 475.42857142857 448zM475.42857142857 283.42857142857c0 -10.093714285714 -8.192 -18.285714285714 -18.285714285714 -18.285714285714h-109.71428571429c-10.093714285714 0 -18.285714285714 8.192 -18.285714285714 18.285714285714V393.14285714286c0 10.093714285714 8.192 18.285714285714 18.285714285714 18.285714285714h109.71428571429c10.093714285714 0 18.285714285714 -8.192 18.285714285714 -18.285714285714V283.42857142857zM475.42857142857 155.42857142857h-146.28571428571 c-20.205714285714 0 -36.571428571429 -16.365714285714 -36.571428571429 -36.571428571429v-146.28571428571c0 -20.205714285714 16.365714285714 -36.571428571429 36.571428571429 -36.571428571429h146.28571428571c20.205714285714 0 36.571428571429 16.365714285714 36.571428571429 36.571428571429v146.28571428571C512 139.06285714286 495.63428571429 155.42857142857 475.42857142857 155.42857142857zM475.42857142857 -9.1428571428571c0 -10.093714285714 -8.192 -18.285714285714 -18.285714285714 -18.285714285714h-109.71428571429 c-10.093714285714 0 -18.285714285714 8.192 -18.285714285714 18.285714285714v109.71428571429c0 10.093714285714 8.192 18.285714285714 18.285714285714 18.285714285714h109.71428571429c10.093714285714 0 18.285714285714 -8.192 18.285714285714 -18.285714285714V-9.1428571428571zM182.85714285714 448H36.571428571429C16.365714285714 448 0 431.63428571429 0 411.42857142857v-146.28571428571c0 -20.205714285714 16.365714285714 -36.571428571429 36.571428571429 -36.571428571429h146.28571428571 c20.205714285714 0 36.571428571429 16.365714285714 36.571428571429 36.571428571429V411.42857142857C219.42857142857 431.63428571429 203.06285714286 448 182.85714285714 448zM182.85714285714 283.42857142857c0 -10.093714285714 -8.192 -18.285714285714 -18.285714285714 -18.285714285714H54.857142857143c-10.093714285714 0 -18.285714285714 8.192 -18.285714285714 18.285714285714V393.14285714286c0 10.093714285714 8.192 18.285714285714 18.285714285714 18.285714285714h109.71428571429 c10.093714285714 0 18.285714285714 -8.192 18.285714285714 -18.285714285714V283.42857142857z"/><glyph unicode="&#xE022;" glyph-name="web34" horiz-adv-x="585" d="M73.142857142857 356.57142857143h36.571428571429V393.14285714286H73.142857142857V356.57142857143zM566.85714285714 448H18.285714285714C8.192 448 0 439.808 0 429.71428571429v-475.42857142857c0 -10.093714285714 8.192 -18.285714285714 18.285714285714 -18.285714285714h548.57142857143 c10.093714285714 0 18.285714285714 8.192 18.285714285714 18.285714285714V429.71428571429C585.14285714286 439.808 576.95085714286 448 566.85714285714 448zM548.57142857143 -9.1428571428571c0 -10.093714285714 -8.192 -18.285714285714 -18.285714285714 -18.285714285714H54.857142857143c-10.093714285714 0 -18.285714285714 8.192 -18.285714285714 18.285714285714V301.71428571429h512V-9.1428571428571zM548.57142857143 338.28571428571H36.571428571429V393.14285714286 c0 10.093714285714 8.192 18.285714285714 18.285714285714 18.285714285714h475.42857142857c10.093714285714 0 18.285714285714 -8.192 18.285714285714 -18.285714285714V338.28571428571zM146.28571428571 356.57142857143h36.571428571429V393.14285714286H146.28571428571V356.57142857143zM219.42857142857 356.57142857143h36.571428571429V393.14285714286h-36.571428571429V356.57142857143z"/></font>
</defs>
</svg>
