<?xml version="1.0" standalone="no"?>
<!DOCTYPE svg PUBLIC "-//W3C//DTD SVG 1.1//EN" "http://www.w3.org/Graphics/SVG/1.1/DTD/svg11.dtd">
<svg xmlns="http://www.w3.org/2000/svg">
<metadata>Copyright (C) 2015 by original authors @ fontello.com</metadata>
<defs>
<font id="mercury" horiz-adv-x="1000" >
<font-face font-family="mercury" font-weight="400" font-stretch="normal" units-per-em="1000" ascent="850" descent="-150" />
<missing-glyph horiz-adv-x="1000" />
<glyph glyph-name="79" unicode="&#xe800;" d="m487 785c-236 0-428-192-428-428 0-236 192-428 428-428 236 0 428 192 428 428 0 236-192 428-428 428z m0-828c-221 0-401 180-401 400s180 401 401 401c220 0 400-180 400-401s-180-400-400-400z m0 736c-185 0-336-150-336-336 0-185 151-336 336-336 185 0 336 151 336 336 0 186-151 336-336 336z m0-644c-170 0-309 138-309 308s139 309 309 309c170 0 308-139 308-309s-138-308-308-308z m14 356v201c0 7-7 14-14 14-8 0-14-7-14-14v-201c-21-6-37-25-37-48 0-7 2-14 5-20l-96-65c-6-4-8-13-3-19 2-4 7-6 11-6 3 0 6 1 8 2l98 67c8-5 17-9 28-9 28 0 50 22 50 50 0 23-15 42-36 48z m-14-71c-13 0-23 11-23 23 0 13 10 23 23 23 12 0 23-10 23-23 0-12-11-23-23-23z" horiz-adv-x="1000" />
<glyph glyph-name="78" unicode="&#xe801;" d="m496 604c0 0 0 0 0 0-4 0-8-1-11-4l-471-471c-6-6-6-16 0-22s16-6 22 0l460 460 460-460c6-6 16-6 22 0s6 16 0 22l-471 471c-3 3-7 4-11 4 0 0 0 0 0 0z" horiz-adv-x="1000" />
<glyph glyph-name="77" unicode="&#xe802;" d="m245 353c0 0 0 0 0 0 0-4 2-7 5-10l471-472c6-6 15-6 22 1s6 15 0 21l-460 460 460 460c6 6 6 16 0 22s-16 6-22 0l-471-471c-3-3-5-7-5-10 0-1 0-1 0-1z" horiz-adv-x="1000" />
<glyph glyph-name="76" unicode="&#xe803;" d="m496 103c0 0 0 0 0 0 4 0 8 1 11 4l471 471c6 6 6 16 0 22-6 6-16 6-22 0l-460-460-460 460c-6 6-16 6-22 0-6-6-6-16 0-22l471-471c3-3 7-4 11-4 0 0 0 0 0 0z" horiz-adv-x="1000" />
<glyph glyph-name="75" unicode="&#xe804;" d="m774 353c0 0 0 0 0 1 0 3-1 7-4 10l-471 471c-6 6-16 6-22 0s-6-16 0-22l460-460-460-460c-6-6-6-15 0-21s16-7 22-1l471 472c3 3 4 6 4 10 0 0 0 0 0 0z" horiz-adv-x="1000" />
<glyph glyph-name="74" unicode="&#xe805;" d="m169 565h666c9 0 16 7 16 15s-7 16-16 16h-666c-8 0-15-7-15-16s7-15 15-15z m666-126h-666c-8 0-15-6-15-15s7-16 15-16h666c9 0 16 7 16 16s-7 15-16 15z m0-156h-666c-8 0-15-6-15-15 0-9 7-16 15-16h666c9 0 16 7 16 16 0 9-7 15-16 15z m0-156h-666c-8 0-15-6-15-15 0-9 7-16 15-16h666c9 0 16 7 16 16 0 9-7 15-16 15z" horiz-adv-x="1000" />
<glyph glyph-name="73" unicode="&#xe806;" d="m984 579c0 133-109 242-243 242-93 0-173-54-214-131 0 0 0 0 0 0l-510-173c-7-2-11-10-8-18 2-5 7-9 13-9 1 0 3 0 4 1l487 165c-8-25-14-50-14-77 0-62 24-118 62-161l-290-290c-5-5-5-14 0-20 3-2 6-4 10-4s7 2 10 4l290 291c43-39 99-63 160-63 25 0 48 5 71 12l-238-447c-3-7-1-15 6-19 2-1 4-1 6-1 5 0 10 2 13 7l252 475c0 1 0 1 0 1 78 40 133 121 133 215z m-243-215c-54 0-103 21-141 54l155 154c5 6 5 15 0 20-6 5-14 5-20 0l-154-154c-33 38-54 86-54 141 0 118 96 214 214 214 119 0 215-96 215-214 0-119-96-215-215-215z" horiz-adv-x="1000" />
<glyph glyph-name="72" unicode="&#xe807;" d="m500 379c96 0 174 78 174 174 0 97-78 175-174 175-47 0-91-18-124-51-33-33-51-77-51-124 0-96 78-174 175-174z m0 321c81 0 147-66 147-147 0-81-66-147-147-147-81 0-147 66-147 147 0 81 66 147 147 147z m343-471c64 0 116 52 116 116 0 64-52 116-116 116-64 0-117-52-117-116 0-64 53-116 117-116z m0 204c48 0 88-40 88-88 0-49-40-89-88-89-49 0-89 40-89 89 0 48 40 88 89 88z m147-452l-6 175c-1 28-11 56-30 83-3 3-6 6-10 6-4 0-8-1-11-4-26-23-57-36-90-36-34 0-66 13-91 36-3 3-7 4-11 4-3 0-7-3-9-6-7-8-12-17-16-26l-2 43c-1 43-17 86-46 127-3 3-6 5-10 6-4 0-8-1-11-4-42-38-93-59-147-59-54 0-107 21-148 59-3 3-6 4-10 4-4-1-8-3-10-6-30-41-45-83-47-127l-1-43c-5 9-10 18-16 26-3 3-6 6-10 6-4 0-8-1-11-4-25-23-57-36-90-36-33 0-65 13-90 36-3 3-7 4-11 4-4 0-8-3-10-6-20-27-30-54-31-83l-5-176c0-3 1-7 4-10s6-4 10-4h266c0 0 0 0 0 0 0 0 0 0 0 0 0 0 0 0 0 0h419c0 0 0 0 0 0 0 0 0 0 0 0 0 0 0 0 0 0h267c0 0 0 0 0 0 7 0 14 6 14 14 0 0 0 1 0 1z m-148 195h1l15-115h-30l14 115z m-350 120h15l25-196h-65l25 196z m-335-120h0l15-115h-30l15 115z m-119-182l5 161c1 19 6 37 17 56 21-16 44-26 69-31l-17-131c0-4 1-8 4-11 2-3 6-5 10-5h62c0 0 0 0 0 0 7 0 13 7 13 14 0 1 0 2 0 3l-16 130c24 5 48 15 69 31 11-19 16-37 17-56l5-161h-238z m267 0l8 261c1 34 12 67 33 99 19-16 40-28 63-37 18-8 37-13 56-16l-27-213c-1-4 0-8 3-11 3-3 6-5 10-5h97c0 0 0 0 0 0 8 0 14 6 14 14 0 1 0 2 0 2l-27 213c19 3 38 8 56 16 22 9 43 21 63 37 21-32 32-65 33-99l8-261h-390z m419 0l5 161c0 19 6 37 17 56 20-16 44-26 69-31l-17-131c0-4 1-8 3-11 3-3 7-5 11-5h61c0 0 0 0 0 0 8 0 14 7 14 14 0 1 0 2 0 3l-17 130c25 5 49 15 69 31 11-19 17-37 17-56l5-161h-237z m-567 235c64 0 116 52 116 116 0 64-52 116-116 116-64 0-116-52-116-116 0-64 52-116 116-116z m0 204c49 0 88-40 88-88 0-49-39-89-88-89-49 0-89 40-89 89 0 48 40 88 89 88z" horiz-adv-x="1000" />
<glyph glyph-name="54" unicode="&#xe808;" d="m485 591c57 0 103 47 103 104s-46 104-103 104c-58 0-104-47-104-104s46-104 104-104z m0 179c41 0 74-34 74-75s-33-75-74-75c-42 0-75 34-75 75s33 75 75 75z m125-240c-1 26-10 51-27 75-2 3-6 5-10 5-5 0-8-1-11-3-43-40-112-40-155 0-3 2-6 3-11 3-4 0-8-2-10-6-18-24-27-48-27-74l-5-153c0-4 1-7 4-10s6-4 10-4h233c0 0 0 0 0 0 8 0 15 6 15 14 0 2-1 3-1 5l-5 148z m-227-139l4 138c1 16 5 31 14 46 17-13 37-19 57-23l-15-115c0-4 1-8 4-11 3-3 7-5 11-5h53c0 0 1 0 1 0 8 0 14 7 14 15 0 2 0 4-1 6l-14 110c20 4 40 10 57 23 9-15 13-30 14-46l4-138h-203z m-161-248c57 0 104 47 104 104 0 57-47 103-104 103s-104-46-104-103c0-57 47-104 104-104z m0 179c41 0 75-34 75-75 0-42-34-75-75-75-41 0-75 33-75 75 0 41 34 75 75 75z m126-240c-1 26-10 50-27 74-3 3-6 6-11 6-3 0-8-1-11-4-43-40-111-40-154 0-3 3-7 4-11 4-4-1-8-3-10-6-18-24-27-49-28-74l-5-153c0-4 2-8 5-11 2-2 6-4 10-4h232c1 0 1 0 1 0 8 0 14 6 14 14 0 2 0 4 0 5l-5 149z m-227-139l4 138c0 15 5 30 13 45 17-12 37-19 58-23l-15-114c0-4 1-8 4-11s6-5 10-5h54c0 0 0 0 1 0 8 0 14 6 14 14 0 2-1 4-1 6l-14 111c20 3 40 10 57 22 8-14 13-29 13-45l4-138h-202z m626 200c57 0 104 47 104 104 0 57-47 103-104 103s-104-46-104-103c0-57 47-104 104-104z m0 179c41 0 75-34 75-75 0-42-34-75-75-75-41 0-75 33-75 75 0 41 34 75 75 75z m130-389l-4 149c-1 25-10 50-28 74-2 3-6 6-10 6-4 0-8-1-11-4-43-40-111-40-154 0-3 3-7 4-12 4-4-1-7-3-10-6-17-24-26-49-27-74l-5-153c0-4 2-8 4-11s7-4 11-4h232c0 0 0 0 1 0 8 0 14 6 14 14 0 2 0 4-1 5z m-232 10l5 138c0 15 5 30 13 45 17-12 37-19 57-23l-14-114c-1-4 1-8 3-11 3-3 7-5 11-5h54c0 0 0 0 0 0 8 0 15 6 15 14 0 2-1 4-2 6l-14 111c21 3 40 10 58 22 8-15 13-30 13-45l4-138h-203z m-146 279v93c0 8-6 14-14 14s-14-6-14-14v-93l-82-46c-6-4-9-13-5-20 3-5 8-7 13-7 2 0 5 0 7 2l80 46 81-46c2-2 5-2 7-2 5 0 10 2 13 7 4 7 1 16-6 20l-80 46z" horiz-adv-x="1000" />
<glyph glyph-name="55" unicode="&#xe809;" d="m828 40l-241 283 72 72c3 3 4 7 4 11s-1 7-4 10l-45 45c-6 6-15 6-20 0l-16-16-215 156 0 0c2 2 4 6 4 10s-2 7-4 10l-46 45c-6 6-15 6-20 0l-116-115c-3-3-4-7-4-11s1-7 4-10l45-45c3-3 7-4 11-4 3 0 7 1 10 4l155-215-16-16c-2-3-4-6-4-10s2-8 4-10l46-46c2-3 6-4 10-4s7 1 10 4l72 73 284-241c2-3 6-4 9-4 4 0 7 2 10 4 5 6 6 14 1 20z m-616 500l95 96 25-25-2-2c0 0 0 0 0 0l-92-92c0 0 0 0 0 0l-1-2-25 25z m55-35l75 75 215-155-134-135-156 215z m175-286l-25 25 12 12c1 1 2 0 3 1l158 159c1 0 1 1 1 2l13 13 25-25-187-187z m103 62l22 22 124-147-146 125z" horiz-adv-x="1000" />
<glyph glyph-name="56" unicode="&#xe80a;" d="m495 533c-102 0-185-84-185-186s83-186 185-186 186 83 186 186-83 186-186 186z m0-343c-86 0-157 70-157 157 0 87 71 157 157 157s158-70 158-157c0-87-71-157-158-157z m0 243c-47 0-85-39-85-86s38-86 85-86 86 39 86 86-38 86-86 86z m0-143c-31 0-57 25-57 57s26 57 57 57 57-26 57-57-25-57-57-57z m415 71h-30c-7 202-169 363-370 371v29c0 8-7 14-15 14-8 0-14-6-14-14v-29c-201-8-363-169-370-371h-30c-8 0-14-6-14-14s6-15 14-15h30c7-201 169-362 370-370v-29c0-8 6-15 14-15 8 0 15 7 15 15v29c201 8 363 169 370 370h30c8 0 14 7 14 15s-6 14-14 14z m-58 0h-72c-7 146-124 263-270 271v71c185-8 334-156 342-342z m-123-29h22c-7-130-111-234-241-241v22c0 8-7 14-15 14-8 0-14-6-14-14v-22c-130 7-234 111-242 241h23c8 0 14 7 14 15s-6 14-14 14h-23c8 131 112 235 242 242v-22c0-8 6-15 14-15 8 0 15 7 15 15v22c130-8 234-111 241-242h-22c-8 0-14-6-14-14s6-15 14-15z m-248 371v-71c-146-8-263-125-270-271h-72c8 186 157 334 342 342z m-342-371h72c7-146 124-262 270-270v-71c-185 7-334 156-342 341z m371-341v71c146 8 263 124 270 270h72c-8-185-157-334-342-341z" horiz-adv-x="1000" />
<glyph glyph-name="35" unicode="&#xe80b;" d="m933 40h-100v423c0 8-6 15-14 15h-87c-8 0-14-7-14-15v-423h-64v217c0 8-6 14-14 14h-86c-8 0-15-6-15-14v-217h-60v321c0 8-7 15-15 15h-86c-8 0-14-7-14-15v-321h-58v162c0 8-6 14-14 14h-87c-8 0-14-6-14-14v-162h-83v591c0 8-6 14-14 14s-15-6-15-14v-605c0-8 7-15 15-15h111 87 86 86 90 86 92 87 114c8 0 15 7 15 15s-7 14-15 14z m-713 0v147h57v-147h-57z m172 0v307h58v-307h-58z m176 0v202h58v-202h-58z m179 0v409h57v-409h-57z m-499 233c5 0 9 2 12 6l160 214 170-151c3-3 8-4 12-3 4 0 8 3 10 6l140 216 41-24c2-2 5-2 7-2 0 0 0 0 1 0 8-2 14 6 14 14 0 2 0 4-1 6l-10 98c0 5-3 9-7 11-4 3-9 3-13 1l-94-42c-5-2-8-7-9-13 0-5 3-10 8-13l38-22-130-200-169 149c-3 3-7 4-11 4-4 0-8-2-10-6l-170-226c-5-6-3-15 3-20 2-2 5-3 8-3z m530 358l5-55-56 32 51 23z" horiz-adv-x="1000" />
<glyph glyph-name="34" unicode="&#xe80c;" d="m729 552c14 0 28 5 38 16 10 10 16 23 16 38 0 14-6 27-16 37-20 20-56 21-76 0-10-10-15-23-15-38 0-14 5-27 15-37s24-16 38-16z m-17 71c4 5 10 7 17 7 7 0 13-2 18-7 4-5 7-11 7-18s-3-12-7-17c-10-9-26-10-35 0-5 5-8 11-8 17s3 13 8 18z m96 61c-39 38-90 59-144 59-54 0-105-21-143-59-65-65-78-162-34-241l-194-194-24 24c-5 6-15 6-20 0l-37-36c-2-3-4-6-4-10 0-4 2-8 5-10l24-24-8-7-24 23c-2 3-6 5-10 5-4 0-7-2-10-5l-36-36c-3-3-5-6-5-10 0-4 2-7 5-10l24-24-25-25c-4-3-5-8-5-12l12-89c1-3 2-6 4-8l38-37c2-3 6-5 10-5s7 2 10 5l389 389c19-6 39-9 59-9 54 0 104 21 143 59 78 79 78 208 0 287z m-21-267c-46-46-118-62-180-40-6 2-11 0-15-4l-385-385-24 24-10 77 30 30c3 2 4 6 4 10 0 4-1 7-4 10l-24 24 16 16 24-24c3-3 6-4 10-4s8 1 10 4l28 28c3 2 4 6 4 10 0 4-1 7-4 10l-24 24 16 16 24-24c6-6 15-6 20 0l212 211c5 5 5 13 2 18-44 69-34 158 24 215 33 33 77 51 123 51 46 0 90-18 123-51 68-67 68-178 0-246z m12 149c-8 0-14-7-13-15 3-35-10-70-35-95-41-41-105-47-153-16-5 4-13 3-18-2l-381-381c-6-6-6-15 0-20 3-3 6-5 10-5 4 0 7 2 10 5l374 373c58-32 131-22 178 25 31 31 47 74 44 118-1 8-8 14-16 13z" horiz-adv-x="1000" />
<glyph glyph-name="10" unicode="&#xe80d;" d="m817 657c-50 50-116 78-187 78s-138-28-188-78c-50-50-77-117-77-188 0-55 17-107 49-152l-60-59c-22 10-50 6-67-11l-175-176c-11-11-18-26-18-42 0-16 7-31 18-42l36-36c11-11 26-17 42-17 16 0 30 6 42 17l175 176c11 11 17 26 17 42 0 9-2 17-6 25l60 59c44-31 96-49 152-49 71 0 137 28 187 78 50 50 78 117 78 187s-28 138-78 188z m-430-510l-176-175c-11-12-32-12-43 0l-36 36c-6 5-9 13-9 21 0 8 3 16 9 22l175 175c6 6 14 9 22 9 8 0 16-3 22-9l36-36c5-5 9-13 9-21 0-9-4-16-9-22z m14 70l-24 23 55 55c4-4 6-9 10-13 4-4 9-7 13-11l-54-54z m396 85c-45-44-104-69-167-69s-123 25-167 69c-45 45-69 104-69 167s24 123 69 168c44 44 104 69 167 69s122-25 167-69c45-45 69-104 69-168s-24-122-69-167z m-21 313c-39 39-91 60-146 60s-107-21-146-60c-80-80-80-211 0-291 39-39 91-60 146-60s107 21 146 60c80 80 80 211 0 291z m-21-271c-33-33-78-52-125-52-47 0-92 19-125 52-70 69-70 182 0 251 33 33 78 52 125 52 47 0 92-19 125-52 69-69 69-182 0-251z m5 211c-6 9-13 17-20 24-15 15-32 27-52 35-7 2-15-1-18-8-3-8 0-16 8-19 15-6 29-16 42-28 5-6 11-13 16-20 3-4 7-6 12-6 3 0 5 1 8 2 6 5 8 14 4 20z" horiz-adv-x="1000" />
<glyph glyph-name="15" unicode="&#xe80e;" d="m868 547c-15 14-34 22-55 22h-133v34c0 8-6 15-14 15h-64v5c0 18-7 35-19 48-13 12-30 19-48 19h-84c-18 0-35-7-48-19-12-13-19-30-19-48v-5h-60c-8 0-14-7-14-15v-34h-133c-21 0-41-8-55-22-15-15-23-34-23-55v-406c0-21 8-41 23-55 14-15 34-23 55-23h636c21 0 40 8 55 23 14 14 22 34 22 55v406c0 21-8 40-22 55z m-530 42h60c8 0 14 6 14 14v20c0 10 4 20 12 27 7 8 17 12 27 12h84c10 0 20-4 27-12 8-7 12-17 12-27v-20c0-8 6-14 14-14h63v-60h-313v60z m524-503c0-14-5-26-15-35-9-9-21-14-34-14h-636c-13 0-26 5-35 14-9 9-14 21-14 35v406c0 13 5 25 14 34 9 10 22 15 35 15h133v-26c0-8 6-15 14-15h342c8 0 14 7 14 15v26h133c13 0 25-5 34-15 10-9 15-21 15-34v-406z m-367 556c-25 0-45-20-45-45 0-24 20-44 45-44 24 0 44 20 44 44 0 25-20 45-44 45z m0-61c-9 0-16 7-16 16 0 9 7 16 16 16 9 0 16-7 16-16 0-9-7-16-16-16z m-173-298c48 0 87 39 87 87s-39 87-87 87-87-39-87-87 39-87 87-87z m0 146c32 0 58-26 58-59s-26-58-58-58c-32 0-58 26-58 58s26 59 58 59z m79-134c-4 1-8-1-11-3-39-34-97-34-136 0-3 2-7 4-11 3-4 0-8-2-10-6-15-21-23-42-23-64v-123c0-8 6-14 14-14h196c8 0 14 6 14 14v123c0 22-8 44-23 64-2 4-6 6-10 6z m4-178h-166v108c0 12 3 23 9 35 15-10 31-15 48-19l-12-89c-1-4 0-8 3-11 3-3 7-5 11-5h48c0 0 0 0 1 0 8 0 14 6 14 14 0 2 0 5-1 6l-12 85c17 4 33 9 48 19 6-12 9-23 9-35v-108z m352 270h-242c-8 0-15-6-15-14 0-8 7-15 15-15h242c8 0 14 7 14 15 0 8-6 14-14 14z m0-99h-242c-8 0-15-6-15-14s7-14 15-14h242c8 0 14 6 14 14s-6 14-14 14z m0-98h-242c-8 0-15-7-15-14 0-8 7-15 15-15h242c8 0 14 7 14 15 0 7-6 14-14 14z" horiz-adv-x="1000" />
<glyph glyph-name="16" unicode="&#xe80f;" d="m589 308h-44c-5 17-12 33-20 49l31 31c6 6 6 15 0 21l-62 61c-5 6-15 6-20 0l-32-31c-15 9-32 15-48 20v45c0 8-7 14-15 14h-87c-8 0-15-6-15-14v-45c-16-5-33-11-49-20l-31 31c-3 3-6 5-10 5-4 0-8-2-11-5l-61-62c-3-2-5-6-5-10 0-3 2-7 5-10l31-31c-8-16-15-32-20-49h-45c-8 0-14-7-14-15v-87c0-8 6-14 14-14h45c5-17 12-34 20-49l-31-32c-6-6-6-15 0-20l61-62c6-6 15-6 21 0l31 32c16-9 32-16 49-21v-45c0-7 7-14 15-14h87c8 0 15 7 15 14v45c16 5 33 12 48 20l32-31c6-6 15-6 20 0l62 62c6 5 6 14 0 20l-32 32c9 15 16 32 21 49h44c8 0 15 6 15 14v87c0 8-7 15-15 15z m-14-88h-41c-7 0-13-4-14-11-5-21-14-42-26-61-3-6-3-13 2-18l30-29-42-42-29 30c-5 4-12 5-18 2-19-12-40-21-61-26-6-1-11-7-11-14v-41h-59v41c0 7-5 13-11 14-22 5-42 14-61 26-5 3-13 3-18-2l-29-30-42 42 30 29c4 5 5 12 2 18-13 19-21 40-26 61-1 7-7 11-14 11h-41v59h41c7 0 13 5 14 11 5 22 13 42 26 61 3 6 2 13-2 18l-30 29 42 42 29-30c5-4 12-5 18-1 19 12 40 20 61 25 6 1 11 7 11 14v41h59v-41c0-7 5-13 11-14 21-5 42-13 61-25 6-4 13-3 18 1l29 30 42-42-30-29c-5-5-5-12-2-18 12-19 21-39 26-61 1-6 7-11 14-11h41v-59z m-240 167c-75 0-137-62-137-137 0-76 62-138 137-138 76 0 138 62 138 138 0 75-62 137-138 137z m0-246c-59 0-108 49-108 109 0 60 49 108 108 108s109-48 109-108c0-60-49-109-109-109z m595 391h-30c-4 11-8 21-14 32l22 21c5 6 5 15 0 20l-46 46c-6 6-15 6-20 0l-22-21c-10 5-21 10-32 13v30c0 8-6 14-14 14h-65c-8 0-14-6-14-14v-30c-11-3-22-8-32-13l-21 21c-6 6-15 6-20 0l-46-46c-3-2-4-6-4-10 0-4 1-7 4-10l21-21c-5-11-10-21-13-32h-30c-8 0-15-7-15-15v-64c0-8 7-15 15-15h30c3-11 8-21 13-31l-21-22c-3-2-4-6-4-10 0-4 1-7 4-10l46-46c5-5 14-5 20 0l21 22c10-6 21-10 32-14v-30c0-8 6-14 14-14h65c8 0 14 6 14 14v30c11 4 22 8 32 14l21-22c6-5 15-5 21 0l46 46c5 6 5 15 0 20l-22 22c6 10 10 21 14 31h30c8 0 14 7 14 15v64c0 8-6 15-14 15z m-15-65h-27c-6 0-12-5-14-11-3-15-9-30-18-44-4-6-3-13 2-18l19-19-25-25-19 19c-5 5-13 5-18 2-14-9-29-15-44-19-7-1-11-7-11-14v-26h-36v26c0 7-5 13-12 14-15 4-30 10-43 19-6 3-13 3-18-2l-19-19-26 25 19 19c5 5 6 13 2 18-8 14-15 28-18 44-2 6-7 11-14 11h-27v36h27c7 0 12 5 14 11 3 16 10 31 18 44 4 6 3 13-2 18l-19 19 26 26 19-20c5-4 12-5 18-2 13 9 28 15 43 19 7 1 12 7 12 14v27h36v-27c0-7 4-13 11-14 15-4 30-10 44-19 5-3 13-2 18 2l19 20 25-26-19-19c-5-5-6-12-2-18 9-14 15-28 18-44 2-6 8-11 14-11h27v-36z m-173 110c-51 0-92-41-92-92s41-92 92-92c50 0 91 42 91 92s-41 92-91 92z m0-155c-35 0-63 28-63 63s28 63 63 63 63-28 63-63-29-63-63-63z" horiz-adv-x="1000" />
<glyph glyph-name="36" unicode="&#xe810;" d="m191 518h-34c-8 0-14-6-14-14v-147c0-8 6-14 14-14h34c8 0 14 6 14 14v147c0 8-6 14-14 14z m-15-146h-5v117h5v-117z m709 323c-14 15-34 23-54 23h-660c-20 0-40-8-54-23-15-14-23-34-23-55v-419c0-21 8-41 23-55 14-15 34-23 54-23h217c22-65 74-105 93-118v-57c0-8 6-15 14-15h142c8 0 15 7 15 15v57c39 30 53 69 59 118h120c20 0 40 8 54 23 15 15 23 34 23 55v419c0 21-8 40-23 55z m-217-347c-7 0-13-2-18-4-4 22-23 38-46 38-6 0-12-1-17-3-1 25-21 44-46 44-6 0-12-1-17-3v49c0 25-21 46-46 46-26 0-47-21-47-46v-212c-11 29-36 77-69 77-8 0-15-3-22-8-29-24-8-65 15-109 1-1 1-2 2-3h-110v433h565v-433h-98c0 9 0 18 0 27v61c0 25-21 46-46 46z m17-107c0-99 0-158-56-196-4-3-6-8-6-12v-51h-114v51c0 5-2 10-7 12 0 0-68 40-89 113-7 24-20 48-32 72-15 29-34 65-23 73 2 2 4 2 4 2 10 0 31-26 46-68 7-17 18-28 30-28 8 0 22 4 22 35v225c0 9 8 17 18 17 9 0 17-8 17-17v-170c0-8 6-15 14-15 8 0 15 7 15 15v78c0 10 7 18 17 18s17-8 17-18v-95c0-8 7-14 15-14s14 6 14 14v54c0 10 8 18 17 18s18-8 18-18v-76c0-8 6-15 14-15s14 7 14 15v42c0 9 8 17 18 17 9 0 17-8 17-17v-61z m194-20c0-13-5-26-14-35-9-9-21-14-34-14h-118c0 4 0 9 0 13h114c8 0 14 7 14 15v462c0 8-6 14-14 14h-595c-8 0-14-6-14-14v-462c0-8 6-15 14-15h140c2-4 3-9 5-13h-206c-13 0-25 5-34 14-9 9-14 22-14 35v419c0 13 5 26 14 35 9 9 21 14 34 14h660c13 0 25-5 34-14 9-9 14-22 14-35v-419z" horiz-adv-x="1000" />
<glyph glyph-name="57" unicode="&#xe811;" d="m992 537l-171 171c-5 6-14 6-20 0l-72-72c-5-5-5-14 0-20l6-5-10-10c-17 12-52 32-106 32-27 0-55-5-84-15-10-4-19-7-28-10-19 12-37 24-50 32-20 13-43 19-68 19-49 0-93-24-112-36l-10 10 5 5c3 3 4 6 4 10 0 4-1 7-4 10l-72 72c-6 6-14 6-20 0l-171-171c-6-6-6-15 0-20l72-72c3-3 6-4 10-4 3 0 7 1 9 4l5 4 14-14c-7-98 16-137 87-210l-10-9c-23-23-22-60 0-83 11-11 26-17 42-17 2 0 3 1 5 1 0-2-1-4-1-5 0-16 6-31 17-42 11-11 26-17 42-17 2 0 3 1 5 1 0-2-1-4-1-5 0-16 6-31 17-42 11-11 26-17 42-17 2 0 3 1 5 1 0-2-1-3-1-5 0-16 6-31 17-42 11-11 26-17 42-17 15 0 30 6 41 17l9 9 7-6c11-12 25-18 41-18 16 0 30 6 42 18 11 11 17 27 17 43 18-3 36 3 49 16 11 11 18 26 18 42 0 2-1 5-1 7 17-2 32 6 44 18 12 11 17 27 17 42 18-3 37 4 50 17 14 14 18 33 15 52 104 104 123 143 107 230l13 13 5-4c2-3 6-4 9-4 4 0 7 1 10 4l72 72c3 3 4 6 4 10 0 4-1 7-4 10z m-901-41l-53 53 152 152 52-53-151-152z m168-322c-6-5-13-8-21-8-8 0-16 3-22 9-12 12-12 31 0 43l80 80c8 9 20 14 30 14 7 0 13-3 19-8 6-7 9-15 7-24-1-9-6-18-12-25 0 0-1 0-1 0l-80-80c0 0 0 0 0-1z m63-63c-12-11-32-11-43 1-6 6-9 13-9 21 0 8 3 16 9 21 0 1 0 1 0 1l80 80c0 0 0 0 1 1 8 8 19 13 29 13 7 0 13-3 19-8 5-5 8-12 8-19 0-10-5-22-13-30 0 0-1 0-1 0l-80-80c0 0 0 0 0-1z m63-63c-6-5-13-8-21-8-9 0-16 3-22 9-6 6-9 13-9 21 0 9 3 16 9 22 0 0 0 0 0 0l80 80c0 0 0 0 1 1 8 8 19 13 29 13 7 0 13-3 19-8 14-15 6-37-5-48 0-1-1-1-1-1l-80-80c0 0 0 0 0-1z m20-62c-6 6-9 13-9 22 0 8 3 15 9 21 0 0 0 0 0 0l80 80c0 0 0 1 1 1 8 8 19 13 29 13 7 0 13-3 19-8 15-15 5-38-6-49l-80-80c-11-12-31-12-43 0z m142 2c-12-11-32-12-44 0l-6 7 43 43 8-7c11-12 11-31-1-43z m194 186c-12-12-32-12-44 0l0 0c-1 0-1 1-2 2l-84 84c-6 6-14 6-20 0-5-5-5-14 0-19l84-84c11-12 11-31-1-43-12-12-32-12-43 0l-88 87c-5 6-14 6-19 0-6-5-6-14 0-19l90-91c6-5 9-13 9-21 0-9-3-16-9-22-12-12-32-12-44 0l-12 12c14 23 17 53-5 75-13 13-30 17-48 14 3 17-1 35-14 48-14 14-32 17-50 15 1 3 2 6 2 10 0 15-5 28-15 38-13 13-31 17-48 15 0 0 0 0 0 1 3 18-3 35-15 47-24 24-63 20-89-5l-51-51c-68 71-85 103-78 194 0 4-1 8-4 11l-18 19 122 122 18-18c5-5 13-6 18-2 1 1 51 38 106 38 20 0 38-5 54-15 8-5 19-12 31-20-103-37-160-66-174-101-6-13-5-26 1-38 9-18 24-27 47-27 27 0 64 12 126 39 5 3 9 3 13 4 2-2 3-5 6-7l10-11c0 0 0 0 0 0 0 0 2-2 6-6l232-232c12-12 12-31 0-43z m24 60c-106 106-203 202-233 232 5 7 10 18 6 28-2 5-8 14-26 14-13 0-31-5-49-13-58-26-93-37-115-37-15 0-19 5-22 11-3 5-3 10-1 15 16 38 138 80 219 108 26 8 51 13 75 13 63 0 96-31 97-32 6-6 14-6 20 0l18 18 122-122-18-18c-3-4-5-8-4-13 15-75 9-105-89-204z m145 241l-151 151 52 53 152-152-53-52z" horiz-adv-x="1000" />
<glyph glyph-name="58" unicode="&#xe812;" d="m595 539c6 7 10 15 10 25 0 9-4 17-9 24 5 7 9 15 9 24 0 7-3 13-6 19 29 13 59 37 67 72 4 21-2 40-18 50-17 11-40 11-55-1-11-8-27-14-38 1l-3 5c-9 13-29 41-61 37-30-4-42-25-50-40-8-15-10-17-18-16-6 1-13 4-20 7-20 9-48 21-75-12-10-12-11-28-5-43 12-28 48-52 79-64-2-5-4-10-4-15 0-9 4-17 10-24-6-7-10-15-10-24 0-9 4-16 9-23-115-74-228-256-228-398 0-187 155-213 323-213s322 26 322 213c0 135-116 320-229 396z m-158 15c-6 0-10 5-10 10 0 5 5 10 10 10h130c5 0 9-5 9-10 0-5-4-10-9-10h-130z m-10 58c0 5 5 9 10 9h130c5 0 9-4 9-9 0-5-4-10-9-10h-130c-5 0-10 5-10 10z m-77 90c-3 7-2 11 1 14 12 15 19 13 40 4 9-4 18-8 29-9 28-4 39 17 46 31 8 14 14 23 29 25 14 1 23-11 33-25 1-3 3-5 4-6 18-25 49-28 77-7 6 4 17 4 23 0 6-4 8-10 6-20-8-31-43-52-63-57-2-1-2-2-4-3-1 0-3 1-4 1h-130c-3 0-5-1-7-1 0 0 0 0 0 0-22 2-70 29-80 53z m152-743c-177 0-294 31-294 184 0 138 119 323 228 383 1 0 1 0 1 0h126c105-60 233-242 233-383 0-153-118-184-294-184z m68 305c-15 7-38 13-70 20-19 3-31 8-36 13-6 5-8 11-8 19 0 19 14 28 43 28 27 0 45-12 53-37l62 21c-16 43-49 67-99 72v38h-39v-39c-27-3-49-13-66-32-17-18-26-39-26-65 0-22 7-41 20-57 14-16 44-29 90-39 22-4 36-9 43-14 8-5 11-12 11-21 0-9-4-17-12-23-8-6-21-9-37-9-35 0-56 14-64 43l-67-16c13-50 49-79 108-85v-46h39v46c36 4 63 15 81 35 17 20 26 43 26 68 0 18-5 34-15 49-10 14-22 25-37 31z" horiz-adv-x="1000" />
<glyph glyph-name="37" unicode="&#xe813;" d="m221 25h78c8 0 14 6 14 14v668c0 8-6 14-14 14h-78c-8 0-14-6-14-14v-668c0-8 6-14 14-14z m15 668h48v-639h-48v639z m142-668h77c8 0 14 6 14 14v463c0 8-6 14-14 14h-77c-8 0-15-6-15-14v-463c0-8 7-14 15-14z m14 463h49v-434h-49v434z m142-463h78c7 0 14 6 14 14v275c0 8-7 14-14 14h-78c-8 0-14-6-14-14v-275c0-8 6-14 14-14z m14 274h49v-245h-49v245z m143-274h77c8 0 15 6 15 14v593c0 8-7 15-15 15h-77c-8 0-15-7-15-15v-593c0-8 7-14 15-14z m14 593h49v-564h-49v564z m108-643h-637c-8 0-14-7-14-15s6-14 14-14h637c8 0 14 6 14 14s-6 15-14 15z" horiz-adv-x="1000" />
<glyph glyph-name="17" unicode="&#xe814;" d="m826 692c-15 15-34 23-55 23h-81v34c0 8-6 14-14 14h-63v5c0 18-7 35-20 48s-30 20-48 20h-84c-18 0-35-7-47-20-13-13-20-30-20-48v-5h-60c-8 0-14-6-14-14v-34h-81c-21 0-40-8-55-23-14-15-22-34-22-55v-695c0-21 8-41 22-55 15-15 34-23 55-23h532c21 0 40 8 55 23 15 14 23 34 23 55v695c0 21-8 41-23 55z m-477 42h59c8 0 15 7 15 15v19c0 11 4 21 11 28 7 7 17 11 27 11h84c10 0 20-4 28-11 7-7 11-17 11-28v-19c0-8 6-15 14-15h64v-60h-313v60z m-15-88h342c8 0 14 6 14 14v26h72v-704c0-9-4-17-10-23-6-6-14-10-23-10h-448c-9 0-17 4-23 10-6 6-10 14-10 23v704h72v-26c0-8 6-14 14-14z m486-704c0-13-5-26-14-35-10-9-22-14-35-14h-532c-13 0-25 5-34 14s-15 22-15 35v695c0 13 5 26 14 35 5 4 10 8 16 10v-700c0-17 6-32 18-44 11-11 27-18 43-18h448c17 0 32 7 44 18 11 12 18 27 18 44v700c5-2 10-6 15-10 9-9 14-22 14-35v-695z m-315 845c-24 0-44-20-44-44s20-45 44-45c25 0 45 20 45 45s-20 44-45 44z m0-60c-9 0-16 7-16 16s7 15 16 15c9 0 16-7 16-15s-7-16-16-16z m-189-288c0-8 6-14 14-14h105c8 0 14 6 14 14v105c0 8-6 14-14 14h-105c-8 0-14-6-14-14v-105z m29 91h76v-76h-76v76z m90-167h-105c-8 0-14-7-14-14v-105c0-8 6-15 14-15h105c8 0 14 7 14 15v105c0 7-6 14-14 14z m-14-105h-76v76h76v-76z m14-91h-105c-8 0-14-6-14-14v-105c0-8 6-14 14-14h105c8 0 14 6 14 14v105c0 8-6 14-14 14z m-14-104h-76v76h76v-76z m91 445h175c8 0 14 7 14 15s-6 14-14 14h-175c-8 0-14-6-14-14s6-15 14-15z m0-62h175c8 0 14 7 14 15s-6 14-14 14h-175c-8 0-14-6-14-14s6-15 14-15z m0-133h175c8 0 14 6 14 14s-6 15-14 15h-175c-8 0-14-7-14-15s6-14 14-14z m0-62h175c8 0 14 6 14 14s-6 15-14 15h-175c-8 0-14-7-14-15s6-14 14-14z m0-134h175c8 0 14 7 14 15s-6 14-14 14h-175c-8 0-14-6-14-14s6-15 14-15z m0-62h175c8 0 14 7 14 15s-6 14-14 14h-175c-8 0-14-6-14-14s6-15 14-15z" horiz-adv-x="1000" />
<glyph glyph-name="18" unicode="&#xe815;" d="m302 638h-169c-8 0-15-7-15-15v-602c0-8 7-15 15-15h169c7 0 14 7 14 15v602c0 8-7 15-14 15z m-15-603h-140v574h140v-574z m-103 245h66c8 0 14 7 14 15v272c0 8-6 15-14 15h-66c-8 0-14-7-14-15v-272c0-8 6-15 14-15z m14 273h38v-244h-38v244z m-19-383h76c8 0 14 6 14 14s-6 14-14 14h-76c-7 0-14-6-14-14s7-14 14-14z m0-45h76c8 0 14 6 14 14s-6 14-14 14h-76c-7 0-14-6-14-14s7-14 14-14z m0-46h76c8 0 14 7 14 15 0 8-6 14-14 14h-76c-7 0-14-6-14-14 0-8 7-15 14-15z m337 559h-169c-8 0-15-7-15-15v-602c0-8 7-15 15-15h169c8 0 14 7 14 15v602c0 8-6 15-14 15z m-15-603h-140v574h140v-574z m-103 245h66c8 0 15 7 15 15v272c0 8-7 15-15 15h-66c-8 0-14-7-14-15v-272c0-8 6-15 14-15z m14 273h38v-244h-38v244z m-18-383h75c8 0 14 6 14 14s-6 14-14 14h-75c-8 0-15-6-15-14s7-14 15-14z m0-45h75c8 0 14 6 14 14s-6 14-14 14h-75c-8 0-15-6-15-14s7-14 15-14z m0-46h75c8 0 14 7 14 15 0 8-6 14-14 14h-75c-8 0-15-6-15-14 0-8 7-15 15-15z m340 571c-1 4-3 7-7 9-3 2-7 3-10 2l-164-44c-7-2-12-10-10-18l156-582c1-4 4-7 7-9 2-1 5-2 7-2 1 0 3 0 4 1l163 43c4 1 7 4 9 7 2 3 2 7 1 11l-156 582z m-11-612l-148 555 135 36 149-555-136-36z m-31 553c-3 2-7 3-10 2l-64-17c-4-1-7-4-9-7-2-3-3-7-2-11l71-263c1-4 3-7 7-9 2-1 4-2 7-2 1 0 2 0 3 1l64 17c8 2 13 10 11 18l-71 263c-1 3-3 7-7 8z m10-275l-63 236 36 9 63-235-36-10z m0-129c2-7 8-11 14-11 1 0 3 0 4 1l72 19c8 2 13 10 11 18-2 7-10 12-18 10l-73-20c-7-2-12-9-10-17z m22-26c-8-2-12-10-10-18 2-6 7-10 14-10 1 0 2 0 4 0l72 20c8 2 12 10 10 17-2 8-10 12-17 10l-73-19z m12-44c-8-2-12-10-10-17 1-7 7-11 13-11 2 0 3 0 4 1l73 19c7 2 12 10 10 18-2 7-10 12-18 10l-72-20z" horiz-adv-x="1000" />
<glyph glyph-name="38" unicode="&#xe816;" d="m847 293c4-1 7 0 10 2 3 2 5 6 6 10 4 20 7 43 7 67 0 223-181 404-404 404s-403-181-403-404 181-403 403-403c32 0 65 4 104 15 4 1 7 3 9 6 2 4 2 8 1 11l-94 353 361-61z m-298-285c-30-7-57-11-83-11-207 0-375 169-375 375s168 375 375 375 375-168 375-375c0-17-2-33-4-48l-368 62c-5 2-10 0-13-4-4-4-5-9-4-13l97-361z m385 241l-383 66c-5 1-9-1-13-5-3-3-4-8-3-13l100-375c2-6 8-11 14-11 1 0 3 1 4 1 152 41 267 167 293 321 1 8-4 15-12 16z m-275-305l-90 339 346-59c-28-133-126-240-256-280z" horiz-adv-x="1000" />
<glyph glyph-name="59" unicode="&#xe817;" d="m772 216l-44 44c-22 22-62 22-84 0l-16-17-221 221 16 17c11 11 18 26 18 42 0 16-7 30-18 42l-44 43c-22 23-61 23-84 0l-71-71c-15-15-23-34-23-55 0-21 8-40 23-55l367-367c14-14 34-22 54-22s41 8 55 22l72 72c11 11 17 26 17 42 0 16-6 31-17 42z m-20-64l-72-71c-19-19-50-19-69 0l-367 367c-9 9-14 21-14 34 0 13 5 25 14 34l72 72c5 6 13 9 21 9 9 0 16-3 22-9l44-44c6-5 9-13 9-21 0-9-3-16-9-22l-27-27c-5-5-5-15 0-20l241-241c6-6 15-6 21 0l26 27c12 11 32 11 44-1l43-43c6-6 10-14 10-22 0-8-4-16-9-22z m-364 350c4 0 7 1 10 4 6 5 6 15 0 20l-56 56c-5 6-14 6-20 0s-6-15 0-20l56-56c3-3 6-4 10-4z m302-267c-6 5-15 5-21 0-5-6-5-15 0-21l56-56c3-2 6-4 10-4s7 2 10 4c6 6 6 15 0 21l-55 56z" horiz-adv-x="1000" />
<glyph glyph-name="60" unicode="&#xe818;" d="m642 196c-23 23-61 23-84 0l-16-16-221 220 16 17c11 11 18 26 18 42 0 16-7 31-18 42l-44 44c-22 22-61 22-84 0l-71-72c-15-14-23-34-23-55 0-20 8-40 23-54l367-368c14-14 34-22 54-22 21 0 41 8 55 22l72 72c11 11 17 26 17 42 0 16-6 31-17 42l-44 44z m24-107l-72-72c-19-18-50-18-69 0l-367 367c-9 9-14 22-14 34 0 13 5 26 14 35l72 71c5 6 13 9 21 9 9 0 16-3 22-9l44-43c6-6 9-14 9-22s-3-16-9-22l-27-26c-5-6-5-15 0-21l241-241c3-2 7-4 11-4 3 0 7 2 10 4l26 27c12 11 32 11 44 0l43-44c6-6 10-14 10-22 0-8-4-16-9-21z m-364 349c4 0 7 1 10 4 6 6 6 15 0 20l-56 56c-5 6-14 6-20 0-6-5-6-15 0-20l56-56c3-3 6-4 10-4z m302-267c-6 6-15 6-21 0-5-6-5-15 0-20l56-56c3-3 6-4 10-4s7 1 10 4c6 5 6 15 0 20l-55 56z m231 218c0 1-1 1-1 1-2 168-138 304-307 304-87 0-171-38-229-104-6-5-5-15 1-20s15-5 20 1c50 56 120 89 194 92v-46c0-8 7-14 14-14s15 6 15 14v47c141-8 254-120 262-260h-46c-7 0-14-7-14-15 0-8 7-14 14-14h47c-3-77-37-149-95-200-6-5-7-14-2-20 3-3 7-5 11-5 3 0 7 1 9 4 68 58 107 143 107 232 0 1 0 2 0 3 0 0 0 0 0 0z m-337 38c-4-4-10-8-16-12-3-3-9-8-16-15-8-7-17-16-27-26-2-2-4-6-6-10-2-4-3-8-3-11 0-4 1-7 4-10 4-3 8-5 13-5h81c5 0 9 1 11 4 3 2 4 5 4 9 0 4-2 7-5 10-3 2-7 3-13 3h-57c1 3 3 5 5 7 4 5 12 12 23 21 11 9 19 16 23 20 5 4 10 10 14 18 5 7 7 15 7 24 0 6-1 12-3 17-2 6-6 10-9 15-4 4-9 7-14 9-8 4-17 5-29 5-9 0-17-1-24-4-7-2-13-6-17-10-5-5-8-10-10-15-3-6-4-11-4-16 0-5 1-8 4-10 2-3 5-4 9-4 4 0 7 1 10 4 2 3 4 7 5 11 2 5 3 8 4 9 6 9 13 13 23 13 4 0 8-1 12-3 4-2 7-5 9-9 3-3 4-8 4-12 0-5-1-9-3-13-2-5-6-9-9-14z m143 75c-4 0-6-2-9-4-2-2-5-6-9-11l-59-78c-1-2-3-4-4-6-1-1-2-2-3-4-1-2-2-3-2-5-1-1-1-2-1-4 0-5 2-10 5-13 4-3 9-4 16-4h55v-21c0-5 1-10 4-12 2-3 6-5 10-5 4 0 7 2 10 4 2 3 4 7 4 13v21h6c6 0 10 1 13 3 3 1 4 5 4 9 0 5-2 8-5 10-3 1-8 2-14 2h-4v85c0 13-6 20-17 20z m-11-105h-47l47 64v-64z" horiz-adv-x="1000" />
<glyph glyph-name="39" unicode="&#xe819;" d="m775 450l52 51c11 12 18 26 18 42 0 16-7 31-18 43l-107 107c-23 23-62 22-84 0l-52-52-367-366c-1-2-1-3-2-5 0-1-1-1-1-2l-66-237c-2-5 0-10 4-14 2-3 6-4 10-4 1 0 2 0 4 1l237 65c0 1 0 2 1 2 2 1 4 1 5 2l366 367z m-376-336l-38 37 311 310 37-37-310-310z m-140-45l-55 56 31 112 136-137-112-31z m299 506l38-38-311-310-37 38 310 310z m36 36l151-151-16-16-151 151 16 16z m-288-404l310 310 35-35-310-311-35 36z m350 466c12 11 32 11 43 0l108-108c6-6 9-13 9-22s-3-16-9-21l-42-42-151 151 42 42z m-461-580l33-32-46-13 13 45z m635-51h-310c-8 0-15-7-15-15s7-14 15-14h310c8 0 14 6 14 14s-6 15-14 15z" horiz-adv-x="1000" />
<glyph glyph-name="19" unicode="&#xe81a;" d="m727 727c-15 15-34 23-55 23h-343c-21 0-40-8-55-23-14-14-22-34-22-54v-640c0-21 8-41 22-55 15-15 34-23 55-23h343c21 0 40 8 55 23 15 14 23 34 23 55v640c0 20-8 40-23 54z m-6-694c0-13-5-26-14-35-9-9-22-14-35-14h-343c-13 0-25 5-34 14-10 9-15 22-15 35v640c0 13 5 25 15 34 9 9 21 14 34 14h343c13 0 26-5 35-14 9-9 14-21 14-34v-640z m-29 593h-383c-8 0-14-6-14-14v-519c0-8 6-14 14-14h383c8 0 15 6 15 14v519c0 8-7 14-15 14z m-14-518h-355v489h355v-489z m-104-42h-147c-7 0-14-6-14-14v-34c0-8 7-14 14-14h147c8 0 14 6 14 14v34c0 8-6 14-14 14z m-14-33h-118v5h118v-5z m-133 611h147c8 0 14 7 14 15v34c0 7-6 14-14 14h-147c-7 0-14-7-14-14v-34c0-8 7-15 14-15z m15 34h118v-5h-118v5z" horiz-adv-x="1000" />
<glyph glyph-name="20" unicode="&#xe81b;" d="m891 633c8 0 15 7 15 15v67c0 8-7 15-15 15h-345c0 0 0 0 0 1 0 28-23 51-51 51s-51-23-51-51c0-1 1-1 1-1h-346c-7 0-14-7-14-15v-67c0-8 7-15 14-15h27v-374h-27c-7 0-14-6-14-14v-68c0-8 7-14 14-14h375l-111-193c-4-7-1-16 5-20 3-1 5-1 8-1 5 0 9 2 12 7l93 161v-196c0-8 6-15 14-15s15 7 15 15v196l93-161c2-5 7-7 12-7 2 0 5 0 7 1 7 4 9 13 5 20l-111 193h375c8 0 15 6 15 14v68c0 8-7 14-15 14h-26v374h26z m-418 98c0 12 10 22 22 22s23-10 23-22c0-1 0-1 0-1h-45c0 0 0 0 0 1z m-359-30h763v-39h-763v39z m763-509h-763v38h763v-38z m-41 67h-681v374h681v-374z m-613 202h132c8 0 14 7 14 15v82c0 8-6 15-14 15h-132c-8 0-14-7-14-15v-82c0-8 6-15 14-15z m15 83h103v-54h-103v54z m-15-134h132c8 0 14 6 14 14 0 8-6 14-14 14h-132c-8 0-14-6-14-14 0-8 6-14 14-14z m0-48h132c8 0 14 6 14 14s-6 15-14 15h-132c-8 0-14-7-14-15s6-14 14-14z m132-19h-132c-8 0-14-7-14-15s6-14 14-14h132c8 0 14 6 14 14s-6 15-14 15z m75 118h131c8 0 14 7 14 15v82c0 8-6 15-14 15h-131c-8 0-15-7-15-15v-82c0-8 7-15 15-15z m14 83h103v-54h-103v54z m-14-134h131c8 0 14 6 14 14 0 8-6 14-14 14h-131c-8 0-15-6-15-14 0-8 7-14 15-14z m0-48h131c8 0 14 6 14 14s-6 15-14 15h-131c-8 0-15-7-15-15s7-14 15-14z m0-48h131c8 0 14 6 14 14s-6 15-14 15h-131c-8 0-15-7-15-15s7-14 15-14z m206 147h132c8 0 14 7 14 15v82c0 8-6 15-14 15h-132c-8 0-14-7-14-15v-82c0-8 6-15 14-15z m14 83h103v-54h-103v54z m-14-134h132c8 0 14 6 14 14 0 8-6 14-14 14h-132c-8 0-14-6-14-14 0-8 6-14 14-14z m0-48h132c8 0 14 6 14 14s-6 15-14 15h-132c-8 0-14-7-14-15s6-14 14-14z m0-48h132c8 0 14 6 14 14s-6 15-14 15h-132c-8 0-14-7-14-15s6-14 14-14z" horiz-adv-x="1000" />
<glyph glyph-name="40" unicode="&#xe81c;" d="m935 464l-53 54c-14 14-38 14-52 0l-27-27-69-69v280c0 8-6 15-14 15h-541-62c-8 0-14-7-14-15v-48c-22-1-39-18-39-40 0-21 17-39 39-40v-77c-22-2-39-19-39-41 0-21 17-38 39-40v-77c-22-1-39-19-39-40 0-22 17-39 39-41v-77c-22-1-39-18-39-40s17-39 39-40v-104c0-8 6-14 14-14h603c8 0 14 6 14 14v59 156l174 173 27 28c7 7 11 16 11 26 0 9-4 18-11 25z m-282-236l-7 8 169 169 7-7-169-170z m1-41l-39-11-22 21 11 40 50-50z m141 239l-170-170-8 8 169 170 9-8z m-664 262h34v-33h-34v33z m-38-74c0 7 5 12 12 12h86c7 0 12-5 12-12s-5-12-12-12h-86c-7 0-12 6-12 12z m72-40v-77h-34v77h34z m-72-118c0 7 5 12 12 12h86c7 0 12-5 12-12 0-6-5-11-12-11h-86c-7 0-12 5-12 11z m72-40v-77h-34v77h34z m-72-117c0 6 5 12 12 12h86c7 0 12-6 12-12 0-7-5-12-12-12h-86c-7 0-12 5-12 12z m72-41v-76h-34v76h34z m-60-129c-7 0-12 5-12 12s5 12 12 12h86c7 0 12-6 12-12s-5-12-12-12h-86z m600-118h-574v89h34v-44c0-8 6-14 14-14h526v-31z m0 60h-512v30c22 1 39 18 39 40s-17 39-39 40v77c22 2 39 19 39 41 0 21-17 39-39 40v77c22 1 39 19 39 40 0 22-17 40-39 41v77c22 1 39 19 39 40 0 22-17 39-39 40v34h512v-294l-119-119c-1-2-1-4-2-5 0-1-1-1-1-2l-33-117c-1-5 0-11 4-14 2-3 6-5 10-5 1 0 2 1 4 1l117 32c1 1 1 2 2 2 2 1 3 1 5 2l13 14v-112z m-23 129l-9 8 170 170 8-9-169-169z m190 190l-65 64 6 6 64-64-5-6z m43 43l-17-17-65 65 17 16c3 4 9 3 11 0l54-53c1-1 2-3 2-5 0-3-1-5-2-6z" horiz-adv-x="1000" />
<glyph glyph-name="61" unicode="&#xe81d;" d="m538 601c-8 0-14-7-14-15v-186c-26-6-45-28-45-56 0-33 27-60 59-60 28 0 50 20 57 45h109c8 0 14 7 14 15 0 8-6 14-14 14h-109c-5 21-21 37-42 42v186c0 8-7 15-15 15z m31-257c0-17-14-31-31-31s-30 14-30 31c0 17 13 31 30 31s31-14 31-31z m-33 403c-217 0-395-173-403-389h-89c-6 0-11-3-13-9-3-5-1-11 3-15l143-143c5-6 14-6 20 0l143 143c4 4 5 10 3 15-2 6-8 9-13 9h-90c21 166 143 285 296 285 165 0 299-134 299-299s-134-299-299-299c-79 0-154 31-211 89-6 6-15 6-20 0l-53-52c-6-5-6-14 0-20 76-78 177-122 284-122 223 0 404 181 404 404s-181 403-404 403z m0-778c-95 0-184 37-254 103l33 32c61-57 139-88 221-88 181 0 328 147 328 328s-147 328-328 328c-173 0-310-138-326-327 0-4 1-8 4-11 2-3 6-5 10-5h71l-108-108-109 108h69c8 0 14 7 14 15 0 207 169 375 375 375s375-168 375-375c0-207-168-375-375-375z" horiz-adv-x="1000" />
<glyph glyph-name="14" unicode="&#xe81e;" d="m904 680h-355c0 1 0 1 0 1 0 29-23 51-51 51-28 0-51-22-51-51 0 0 1 0 1-1h-356c-7 0-14-6-14-14v-68c0-8 7-14 14-14h36v-396c0-21 8-40 23-54 14-15 34-23 55-23h278v-76c-21-6-37-25-37-48 0-28 23-51 51-51 28 0 51 23 51 51 0 23-15 42-36 48v76h278c21 0 40 8 55 22 14 15 22 35 22 55v396h36c8 0 14 6 14 14v68c0 8-6 14-14 14z m-384-693c0-12-10-22-22-22-12 0-22 10-22 22 0 12 10 22 22 22 12 0 22-10 22-22z m-44 694c0 13 10 23 22 23 12 0 22-10 22-23 0 0 1 0 1-1h-46c1 1 1 1 1 1z m364-493c0-13-5-25-15-34-9-9-21-15-34-15h-585c-14 0-26 6-35 15-9 9-14 21-14 34v396h683v-396z m50 425h-783v39h783v-39z m-392-418c92 0 167 75 167 167s-75 166-167 166c-92 0-166-74-166-166s74-167 166-167z m90 63l-62 89h109c-4-35-21-66-47-89z m47 118h-122v122c64-7 115-58 122-122z m-151 122v-116l-109 40c21 42 61 71 109 76z m-119-103l124-45 76-108c-20-11-42-18-67-18-76 0-138 62-138 138 0 11 2 23 5 33z" horiz-adv-x="1000" />
<glyph glyph-name="33" unicode="&#xe81f;" d="m786 524c0 58-32 111-84 139-4 2-9 2-14 0-4-3-7-8-7-13v-130h-107v130c0 5-2 10-7 13-4 2-9 2-14 0-51-28-83-81-83-139s30-109 81-137l-32-391c-2-20 5-39 18-53 13-15 32-23 52-23h78c20 0 38 8 52 23 13 14 19 34 17 53l-31 391c50 28 81 80 81 137z m-102-116c-6-2-9-8-8-14l32-401c1-11-3-23-11-31-8-9-18-13-30-13h-78c-12 0-23 4-31 13-7 8-11 20-10 32l32 400c0 6-3 12-8 14-46 22-74 67-74 116 0 39 18 75 48 99v-117c0-8 6-14 14-14h136c7 0 14 6 14 14v118c29-25 47-61 47-100 0-50-28-94-73-116z m-88-356c-18-18-18-47 0-65 8-8 20-13 32-13 12 0 24 5 32 14 18 17 18 46 0 64-17 17-47 18-64 0z m44-44c-7-7-18-6-24 0-7 6-7 17 0 24 3 3 7 5 12 5 4 0 9-2 12-5 6-7 6-18 0-24z m-175 406h-51c0 1 2 3 2 5l-1 116 27 105c0 1 0 4 0 5l-15 131c-1 7-7 13-14 13h-81c-8 0-14-6-15-13l-15-133c0-1 1-3 1-4l32-103v-117c0-2 1-4 2-5h-58c-7 0-14-7-14-15v-93c0-8 7-14 14-14h4v-307c0-16 6-31 17-43 12-11 27-18 44-18h57c16 0 32 7 43 18 12 12 18 27 18 43v307h3c8 0 14 6 14 14v93c0 8-6 15-14 15z m-65 346l2-19h-60l2 19h56z m-37-217l-32 102 8 67h66c0 0 0 0 0 0l8-68-26-106v-119c0-2 1-4 2-5h-28c1 1 2 3 2 5v119c0 2 0 3 0 5z m-69-158h157v-65h-3-151-3v65z m139-400c0-8-3-16-9-22-6-7-14-10-23-10h-57c-9 0-17 3-23 10-6 6-10 14-10 22v307h122v-307z" horiz-adv-x="1000" />
<glyph glyph-name="13" unicode="&#xe820;" d="m826 749h-552c-8 0-14-6-14-14v-196h-117c-8 0-15-6-15-14v-508c0-21 8-41 23-55 15-15 34-23 55-23h68 484 1 4c21 0 40 8 55 23 15 15 23 34 23 55v718c0 8-7 14-15 14z m-655-767c-9 9-14 22-14 35v493h524v-493c0-18 6-35 17-49h-492c-13 0-25 5-35 14z m641 35c0-13-5-26-14-35-10-9-22-14-35-14h-4-1 0c-13 0-25 5-34 14-10 9-15 22-15 35v508c0 8-6 14-14 14h-406v182h523v-704z m-185 459h-414c-8 0-15-7-15-15v-87c0-8 7-14 15-14h414c8 0 14 6 14 14v87c0 8-6 15-14 15z m-15-88h-385v59h385v-59z m-399-192h191c8 0 15 7 15 14v108c0 7-7 14-15 14h-191c-8 0-15-7-15-14v-108c0-7 7-14 15-14z m14 107h163v-78h-163v78z m400 29h-159c-8 0-15-7-15-14s7-15 15-15h159c8 0 14 7 14 15s-6 14-14 14z m0-51h-159c-8 0-15-6-15-14s7-14 15-14h159c8 0 14 6 14 14s-6 14-14 14z m0-53h-159c-8 0-15-7-15-15s7-14 15-14h159c8 0 14 6 14 14s-6 15-14 15z m0-65h-414c-8 0-15-6-15-14s7-15 15-15h414c8 0 14 7 14 15s-6 14-14 14z m0-54h-414c-8 0-15-6-15-14s7-14 15-14h414c8 0 14 6 14 14s-6 14-14 14z m0-56h-414c-8 0-15-6-15-14 0-8 7-15 15-15h414c8 0 14 7 14 15 0 8-6 14-14 14z" horiz-adv-x="1000" />
<glyph glyph-name="32" unicode="&#xe821;" d="m772 46h-657c-8 0-15-6-15-14v-8c0-21 8-41 23-55 15-15 34-23 55-23h531c21 0 40 8 55 23 14 14 22 34 22 55v8c0 8-6 14-14 14z m-29-57c-9-9-21-14-34-14h-531c-13 0-26 5-35 14-7 8-12 18-14 29h628c-1-11-6-21-14-29z m29 433c-10 0-17 0-25-1l6 29c1 4 0 8-3 12-3 3-7 5-11 5h-591c-4 0-8-2-11-5-3-4-4-8-3-12l52-270c7-32 24-61 49-82 25-20 57-32 89-32h238c33 0 64 12 90 32 20 17 34 41 42 66 25-16 58-22 78-23 1 0 2 0 3 0 38 0 71 13 97 38 26 26 41 62 41 103 0 77-63 140-141 140z m-42-92c5 4 11 6 26 9 20 3 42-2 56-15 8-8 17-21 16-41-2-20-10-36-24-47-13-11-31-15-48-12-15 3-34 10-43 21l16 84c1 1 1 1 1 1z m-97-209c-20-17-45-26-71-26h-238c-25 0-51 9-71 26-20 16-33 39-38 65l-50 252h556l-49-252c-5-26-19-49-39-65z m218 78c-19-19-45-29-76-29-1 0-2 0-2 0-23 0-54 9-70 22l4 21c17-11 36-15 44-17 5-1 11-1 16-1 20 0 40 6 55 18 20 16 32 40 34 68 2 25-7 47-25 64-21 19-51 27-80 22-6-1-10-2-15-3l5 25c4 4 10 5 31 5 62 0 112-51 112-112 0-33-11-62-33-83z m-555 336c-5-6-4-15 3-20 2-3 5-3 9-3 4 0 8 1 11 5 46 58 19 100-3 134-22 35-38 61 2 106 6 5 5 15-1 20-6 5-15 5-20-1-55-61-27-105-5-140 21-33 38-59 4-101z m139 0c-5-6-4-15 3-20 2-3 5-3 9-3 4 0 8 1 11 5 46 58 19 100-3 134-22 35-38 61 2 106 6 5 5 15-1 20-6 5-15 5-20-1-55-61-27-105-5-140 21-33 38-59 4-101z m139 0c-5-6-4-15 3-20 2-3 5-3 9-3 4 0 8 1 11 5 46 58 19 100-3 134-22 35-38 61 2 106 6 5 5 15-1 20-6 5-15 5-20-1-55-61-27-105-5-140 21-33 38-59 4-101z" horiz-adv-x="1000" />
<glyph glyph-name="31" unicode="&#xe822;" d="m804 656c-56 56-129 86-208 86s-152-30-207-86c-56-55-86-129-86-207 0-64 21-123 58-173l-51-51c-18 7-40 3-55-11l-139-140c-10-10-16-23-16-37 0-15 6-28 16-38l31-31c10-10 23-15 37-15 14 0 28 5 38 15l139 140c10 10 16 23 16 37 0 6-2 12-4 18l50 50c50-37 110-58 173-58 79 0 152 31 208 86 55 56 86 129 86 208 0 78-31 152-86 207z m-463-528l-140-140c-9-9-25-9-34 1l-31 30c-4 5-7 11-7 18 0 6 3 12 7 17l140 139c4 5 10 7 17 7 6 0 12-2 17-7l31-30c3-4 7-10 7-18 0-6-3-12-7-17z m16 59l-22 22 44 44c4-3 6-8 10-12 4-3 8-6 12-10l-44-44z m426 75c-50-50-116-78-187-78s-137 28-187 78c-50 50-77 116-77 187 0 70 27 137 77 187 50 50 117 77 187 77s137-27 187-77c50-50 78-117 78-187 0-71-28-137-78-187z m-26 348c-43 43-100 66-161 66-60 0-118-23-161-66-88-89-88-233 0-322 43-43 101-67 161-67 61 0 118 24 161 67 89 89 89 233 0 322z m-20-302c-38-37-88-58-141-58-53 0-103 21-140 58-78 78-78 204 0 281 37 38 87 59 140 59 53 0 103-21 141-59 77-77 77-203 0-281z m10 243c-6 9-14 18-22 26-16 17-35 29-57 38-7 3-15-1-18-8-3-7 0-16 8-19 17-7 33-17 47-31 6-7 13-14 18-22 3-4 7-7 12-7 3 0 6 1 8 3 7 4 8 13 4 20z m-106-18c-3 9-6 15-8 20-2 5-5 10-8 14-3 5-7 8-12 11-4 3-10 4-18 4-7 0-13-1-18-4-5-3-9-6-12-11-3-4-5-10-8-17-3-6-5-12-7-17l-66-168c-3-6-4-12-6-15-1-4-1-8-1-11 0-6 2-12 7-17 5-4 11-7 18-7 7 0 13 3 16 7 4 5 8 13 13 26l12 33h105l12-32c2-4 4-9 6-14 2-5 5-9 6-12 3-2 5-4 8-6 3-1 6-2 10-2 8 0 14 3 19 8 5 5 7 10 7 16 0 6-3 15-8 28l-67 166z m-84-112l38 106 39-106h-77z" horiz-adv-x="1000" />
<glyph glyph-name="51" unicode="&#xe823;" d="m502 574c-124 0-225-101-225-225s101-224 225-224c123 0 224 101 224 224s-101 225-224 225z m0-420c-108 0-196 88-196 195 0 108 88 196 196 196 107 0 195-88 195-196 0-107-88-195-195-195z m14 231v126c0 8-6 15-14 15s-15-7-15-15v-126c-14-6-24-20-24-36 0-3 1-7 3-10l-59-41c-7-4-9-13-4-20 3-4 7-6 12-6 2 0 5 1 8 3l61 41c5-3 11-5 18-5 21 0 38 17 38 38 0 16-10 30-24 36z m465 35c-2 7-10 11-18 9-7-2-12-10-9-18 9-31 14-61 14-90 0-30-5-60-14-91-3-8 2-16 9-18 2 0 3-1 4-1 6 0 12 4 14 10 11 34 16 67 16 100s-5 65-16 99z m-942 9c-8 2-16-2-18-9-11-34-16-67-16-99 0-33 5-66 16-100 2-6 7-10 14-10 1 0 2 1 4 1 7 2 12 10 9 18-9 31-14 61-14 91 0 29 5 59 14 90 3 8-2 16-9 18z m861 46c-7-3-10-12-7-19 18-44 28-89 28-135 0-47-10-93-28-136-3-7 0-16 7-19 2-1 4-1 6-1 5 0 11 3 13 9 20 47 30 96 30 147 0 50-10 99-30 146-3 8-11 11-19 8z m-819-154c0 46 10 91 28 135 3 7 0 16-7 19-8 3-16 0-19-8-20-47-30-96-30-146 0-51 10-100 30-147 2-6 8-9 13-9 2 0 4 0 6 1 7 3 10 12 7 19-18 43-28 89-28 136z m764 190c-4 7-13 9-20 5-6-4-9-13-5-20 31-52 48-113 48-175s-17-123-48-176c-4-7-1-16 5-20 3-1 5-2 8-2 5 0 9 3 12 7 34 57 51 123 51 191s-17 133-51 190z m-669 5c-7 4-16 1-20-5-33-57-50-123-50-190s17-134 50-191c3-4 8-7 13-7 2 0 5 1 7 2 7 4 9 13 5 20-30 52-47 113-47 176s17 123 47 175c4 7 2 16-5 20z m577 90c-52 50-124 65-159 31-4-5-6-11-9-17-11 3-21 6-32 8-4 25-25 45-51 45-27 0-47-20-52-45-11-2-22-5-33-9-3 6-5 13-9 18-34 34-107 19-158-32-54-53-68-122-32-158 4-4 10-6 15-8-9-29-16-58-16-90 0-88 42-166 105-218l-37-64c-6-10-8-22-5-33 3-11 10-20 21-26l9-6c7-4 15-6 22-6 4 0 8 1 11 2 11 3 21 10 26 20l38 65c30-11 61-18 95-18 33 0 65 7 94 18l38-65c6-10 15-17 26-20 3-1 7-2 11-2 8 0 15 2 22 6l10 6c10 6 17 15 20 26 3 11 1 23-5 33l-37 64c64 52 105 130 105 218 0 31-6 61-16 89 5 2 10 5 14 9 36 36 22 105-31 159z m-409-574c-1-3-5-5-8-6-4-1-8-1-11 1l-10 6c-2 1-6 4-7 8-1 4 0 8 2 11l34 59 34-20-34-59z m351 9c-1-4-4-7-7-8l-10-6c-3-2-7-3-11-1-3 1-6 3-8 6l-34 59 35 20 34-59c1-3 2-7 1-11z m-193 603c8 0 15-5 19-12-6 0-13 2-19 2-7 0-13-2-20-2 4 7 11 12 20 12z m-264-176c-23 23-9 77 32 117 26 26 60 43 87 43 9 0 21-2 30-11 2-2 2-4 3-6-65-28-118-81-147-146-2 1-4 1-5 3z m264-374c-141 0-256 115-256 255s115 256 256 256c140 0 255-115 255-256s-115-255-255-255z m262 374c-1-2-2-2-4-3-29 66-82 118-148 146 1 2 1 4 3 6 9 9 21 11 30 11 28 0 61-16 87-43 41-40 55-94 32-117z" horiz-adv-x="1000" />
<glyph glyph-name="71" unicode="&#xe824;" d="m270 394c110 0 200 90 200 200 0 53-21 104-59 141-38 38-88 59-141 59-53 0-104-21-141-59-38-37-59-88-59-141 0-53 21-103 59-141 37-38 88-59 141-59z m0 371c94 0 171-77 171-171 0-94-77-171-171-171s-171 77-171 171c0 94 77 171 171 171z m246-513c-2 49-20 98-54 145-2 3-6 5-10 6-4 0-8-1-11-4-49-44-108-68-171-68-63 0-123 24-171 68-3 3-7 4-11 4-4-1-8-3-10-6-35-48-52-95-54-145l-10-318c0-4 2-8 4-11 3-3 7-4 11-4h482c0 0 0 0 0 0 8 0 15 6 15 14 0 1 0 1 0 2l-10 317z m-236 47l29-229h-78l29 229h20z m-236-351l9 303c1 39 14 78 39 116 23-19 47-34 74-44 21-9 43-15 65-18l-31-248c-1-4 1-8 3-11s7-5 11-5h111c0 0 0 0 0 0 8 0 15 6 15 14 0 1 0 2 0 3l-32 247c23 3 45 9 66 18 27 10 51 25 74 44 25-38 37-77 39-116l9-303h-452z m724 360c92 0 167 75 167 167 0 92-75 167-167 167s-167-75-167-167c0-92 75-167 167-167z m0 305c76 0 138-62 138-138 0-76-62-138-138-138s-138 62-138 138c0 76 62 138 138 138z m213-681l-8 261c-2 42-17 82-45 121-2 4-6 6-10 6-4 0-8-1-12-4-39-36-87-55-138-55-51 0-101 20-139 55-3 3-7 4-11 4-5 0-8-3-11-6-28-39-43-79-44-121l-8-261c0-4 1-8 4-11s6-4 10-4h397c0 0 0 0 0 0 8 0 15 6 15 14 0 1 0 1 0 1z m-219 298h12l23-184h-59l24 184z m-178-284l8 246c1 32 11 62 30 92 33-26 71-43 111-49l-26-202c0-4 1-8 4-11 3-3 7-5 11-5h91c0 0 0 0 0 0 8 0 15 7 15 15 0 1 0 1 0 2l-26 201c18 2 36 7 52 14 22 9 41 20 59 35 20-30 30-60 31-92l7-246h-367z" horiz-adv-x="1000" />
<glyph glyph-name="70" unicode="&#xe825;" d="m505 390c110 0 200 90 200 200 0 54-21 104-59 141-38 38-88 59-141 59-54 0-104-21-141-59-38-37-59-87-59-141 0-53 21-103 59-141 37-38 87-59 141-59z m0 371c94 0 171-77 171-171 0-94-77-171-171-171s-171 77-171 171c0 94 77 171 171 171z m256-830l-10 317c-2 49-20 98-54 145-2 3-6 6-10 6-4 0-8-1-11-4-49-44-108-68-171-68-63 0-123 24-171 68-3 3-7 4-11 4-4 0-8-3-10-6-35-47-52-95-54-145l-10-318c0-4 1-8 4-11s7-4 11-4h482c0 0 0 0 0 0 8 0 15 6 15 15 0 0 0 0 0 1z m-246 364l29-229h-78l29 229h20z m-236-351l9 303c1 40 14 78 39 116 22-19 47-33 74-44 21-9 43-15 65-18l-31-248c-1-4 1-8 3-11s7-5 11-5h111c0 0 0 0 0 0 8 0 15 7 15 15 0 0 0 1 0 2l-32 247c23 3 45 9 66 18 26 11 51 25 74 44 25-38 37-76 39-116l9-303h-452z" horiz-adv-x="1000" />
<glyph glyph-name="50" unicode="&#xe826;" d="m861 23h-750v598c0 8-6 14-14 14s-15-6-15-14v-612c0-8 7-15 15-15h764c8 0 15 7 15 15s-7 14-15 14z m-705 31h177c8 0 14 6 14 14v268c0 8-6 15-14 15h-177c-8 0-14-7-14-15v-268c0-8 6-14 14-14z m14 268h148v-240h-148v240z m524 267c-47 47-130 48-178 0-48-49-48-128 1-178 23-23 55-36 88-36 34 0 65 13 89 37 49 49 49 128 0 177z m-20-157c-37-37-101-37-137 0-38 38-38 99 0 137 18 18 42 28 68 28s50-10 69-28c37-38 37-99 0-137z m-98 149c-11-5-21-11-30-20-4-4-8-9-11-13-4-7-2-16 4-20 3-2 5-3 8-3 5 0 9 2 12 7 2 3 5 6 8 9 5 6 12 10 19 13 8 3 11 11 8 19-3 7-11 10-18 8z m363-331l-111 112c-4 4-9 6-14 8v53c0 8-6 14-14 14h-33c8 20 13 41 13 63 0 47-19 91-52 124s-76 51-123 51-90-19-123-51c-28-29-45-65-49-104h-43c-8 0-15-7-15-14v-438c0-8 7-14 15-14h176c8 0 15 6 15 14v261c8-2 16-3 24-3 2 0 3 0 4 0v-258c0-8 6-14 14-14h177c8 0 14 6 14 14v139l42-41c8-8 19-12 30-12 12 0 22 4 30 12l23 23c8 8 13 19 13 31s-5 22-13 30z m-188 97l-27 27c2 1 3 2 4 3 2 1 3 3 4 4l27-27-8-7z m35 61v-36c-1 0-2 0-3-1l-33 33c1 1 2 3 3 4h33z m-234-326h-148v409h28c2-43 19-83 50-114 20-20 44-33 70-42v-253z m-50 315c-27 28-42 64-42 103s15 76 42 103c28 28 64 43 103 43 39 0 76-15 103-43 28-27 43-64 43-103 0-39-15-75-43-103-27-27-64-42-103-42-39 0-75 15-103 42z m284-315h-148v247c23 5 45 13 64 26l32-32c-2-4-3-9-3-14 0-12 5-23 13-31l42-42v-154z m133 127l-23-22c-6-7-17-4-20 0l-112 111c-3 3-4 7-4 11 0 4 2 8 4 10l23 23c3 2 6 4 10 4 4 0 8-2 10-4l112-112c2-2 4-5 4-10 0-4-1-8-4-11z" horiz-adv-x="1000" />
<glyph glyph-name="30" unicode="&#xe827;" d="m903 685c-14 14-34 22-55 22h-698c-20 0-40-8-55-22-14-15-22-34-22-55v-437c0-21 8-41 22-55 15-15 35-23 55-23h218v-62h-49c-8 0-15-7-15-15v-54c0-8 7-15 15-15h379c8 0 15 7 15 15v54c0 8-7 15-15 15h-49v62h199c21 0 41 8 55 23 15 14 23 34 23 55v437c0 21-8 40-23 55z m-787-21c9 10 21 15 34 15h698c13 0 26-5 35-15 9-9 14-21 14-34v-409h-795v409c0 13 5 25 14 34z m568-666h-351v26h351v-26z m-64 55h-223v62h223v-62z m228 91h-214-251-233c-13 0-25 5-34 14-9 9-14 21-14 34h795c0-13-5-25-14-34-9-9-22-14-35-14z m-704 103h572c0 0 0 0 0 0 0 0 0 0 1 0h137c8 0 15 6 15 14v376c0 8-7 14-15 14h-710c-8 0-14-6-14-14v-376c0-8 6-14 14-14z m313 254c-17-33-28-82-36-130-31 4-59 9-81 15 31 58 72 99 117 115z m-39-158c-4-27-6-50-7-68h-110c6 31 15 59 26 85 25-7 55-13 91-17z m28-3c18-1 36-2 56-2 19 0 35 1 51 2 2-20 4-41 6-65h-119c1 24 4 45 6 65z m135 2c36 4 67 10 91 17 11-26 19-54 26-84h-110c-1 18-3 41-7 67z m-4 29c-7 47-18 97-35 130 45-17 86-58 117-116-22-6-50-11-82-14z m122-3c27 10 44 20 54 27 31-34 55-74 71-120h-97c-7 34-16 65-28 93z m-12 26c-19 38-42 69-68 93 42-16 80-40 113-71-9-6-24-14-45-22z m-138-26c-15 0-30-1-47-1-19 0-36 1-52 2 15 98 37 140 49 140 12 0 35-43 50-141z m-237 27c-21 8-36 15-45 21 33 31 71 55 113 71-26-24-49-55-68-92z m-66 1c10-7 27-17 54-27-12-29-22-60-29-94h-96c16 46 40 87 71 121z m594 226v-309c-61 136-192 225-341 225h0c0 0 0 0 0 0-149 0-279-89-340-225v309h681z" horiz-adv-x="1000" />
<glyph glyph-name="11" unicode="&#xe828;" d="m485 754c-160 0-290-130-290-290 0-100 50-191 134-245 4-2 7-5 11-7 16-10 24-15 24-43v-59c0-7 6-14 14-14h214c8 0 15 7 15 14v59c0 28 5 31 29 46 87 54 140 147 140 249 0 160-131 290-291 290z m41-397c-7 0-14 2-20 5 9 12 16 27 16 44s-7 31-16 44c6 3 13 4 20 4 27 0 49-21 49-48 0-27-22-49-49-49z m-33 49c0-9-3-18-8-25-4 7-7 16-7 25s3 17 7 24c5-7 8-15 8-24z m-29-44c-6-3-12-5-20-5-26 0-48 22-48 49 0 27 22 48 48 48 8 0 14-1 20-4-9-13-15-27-15-44 0-17 6-32 15-44z m-5-31c9 2 18 6 26 11 8-5 17-9 27-11v-206h-53v206z m161-92c-25-16-42-27-42-70v-44h-37v206c35 7 62 37 62 75 0 42-34 77-77 77-15 0-29-6-41-13-12 7-25 13-41 13-42 0-77-35-77-77 0-38 28-68 63-75v-206h-37v44c0 44-20 57-38 68-3 2-6 4-10 6-76 49-121 131-121 221 0 144 117 262 261 262s262-118 262-262c0-92-47-176-127-225z m-28-155h-214c-8 0-14-6-14-14v-18c0-20 8-40 23-54 10-11 24-19 40-21 8-26 31-43 58-43 27 0 50 17 59 43 15 2 29 10 40 21 15 14 23 34 23 54v18c0 8-7 14-15 14z m-14-32c0-13-5-25-14-34-11-11-24-13-32-14-7 0-13-5-14-12-3-17-16-29-33-29-16 0-30 12-32 29-1 7-7 12-14 12-9 1-21 3-32 14-9 9-14 21-14 34v3h185v-3z" horiz-adv-x="1000" />
<glyph glyph-name="12" unicode="&#xe829;" d="m887 255l-453 453c-3 3-7 5-12 4l-244-30c-7-1-12-6-13-13l-30-244c-1-4 1-9 4-12l453-453c2-3 6-4 10-4 4 0 7 1 10 4l275 275c6 6 6 15 0 20z m-285-264l-438 437 28 227 227 28 438-438-255-254z m-235 596c-9-2-18-7-26-14-8-8-12-17-14-26-1-9 0-19 3-28 4-10 9-21 17-33 6-9 10-17 13-22 3-6 4-12 4-18 0-5-2-10-7-15-6-6-13-8-22-7-9 2-17 6-26 15-6 6-10 11-11 17-2 6-2 11-2 16 1 5 3 10 6 16 2 5 3 10 3 14 0 4-2 7-5 10-3 4-8 5-12 5-5 0-9-1-12-5-6-5-10-13-12-23-3-11-2-20 0-30 4-14 12-28 26-41 11-12 23-20 35-24 12-5 23-6 34-3 11 2 20 7 29 16 7 7 11 14 13 21 3 7 3 14 2 22-1 7-4 15-8 24-4 8-9 17-15 27-5 8-8 13-10 17-2 3-3 7-4 11-2 4-2 8-1 11 0 4 2 7 4 10 5 4 11 6 18 4 8-1 15-5 22-12 8-8 12-15 13-22 1-6-1-13-3-21-2-5-3-9-3-13 0-3 2-6 5-9 4-4 8-5 13-5 5 0 9 2 12 5 4 4 7 9 9 14 2 6 2 13 2 20-1 7-3 15-7 24-4 8-11 16-19 24-11 11-21 19-32 23-11 5-22 6-32 5z m11-245c0-5 3-11 9-17l75-75c5-5 9-7 13-7 4 0 8 1 11 4 4 4 5 8 5 12 0 4-2 8-7 13l-64 64 39 39 57-57c4-5 9-7 13-7 4 0 7 2 10 5 4 3 5 6 5 10 0 4-3 8-7 13l-57 57 33 34 63-63c4-4 8-6 13-7 4 0 7 2 11 5 3 3 4 7 4 11 0 4-2 8-7 13l-73 73c-4 4-8 7-12 8-3 1-7 1-11 0-3-1-7-4-11-8l-103-103c-6-6-9-12-9-17z m182-52c-10-11-18-22-24-33-6-12-10-24-10-36-1-12 1-24 6-36 5-12 13-23 24-34 11-10 22-18 34-23 11-5 23-7 35-7 12 1 24 4 36 10 11 6 22 14 33 24 14 15 24 30 30 46 5 15 5 31 1 47-4 16-14 31-28 45-10 11-21 19-33 24-11 5-23 7-35 6-12 0-24-3-35-9-12-6-23-14-34-24z m75-3c8 0 15-1 22-3 6-3 12-7 18-13 8-7 13-16 15-26 2-10 1-20-3-30-4-11-11-21-21-31-11-11-22-18-33-22-11-4-21-5-30-3-10 3-18 7-25 15-6 5-10 11-12 18-3 7-4 14-3 22 0 7 3 15 7 23 4 9 10 17 18 25 8 7 16 13 24 17 8 5 16 7 23 8z m-363 334c-13 12-33 12-46 0-12-13-12-33 0-46 13-13 33-13 46 0 13 13 13 33 0 46z" horiz-adv-x="1000" />
<glyph glyph-name="09" unicode="&#xe82a;" d="m901 503c-14 14-34 22-54 22h-207v33c0 20-8 40-23 55-15 14-34 22-55 22h-419c-20 0-40-8-54-22-15-15-23-35-23-55v-232c0-21 8-40 23-55 14-15 34-23 54-23h22l-20-87c-1-6 1-12 7-16 2-1 5-2 7-2 3 0 7 1 9 3l125 102h58v-32c0-21 8-40 22-55 15-14 34-22 55-22h269l125-102c2-3 6-4 9-4 0 0 0 0 1 0 7 0 14 7 14 15 0 2-1 5-2 7l-19 84h22c20 0 40 8 54 22 15 15 23 34 23 55v232c0 21-8 40-23 55z m-614-226c-3 0-6-1-9-3l-95-79 14 65c1 4 0 8-3 12-2 3-6 5-11 5h-40c-13 0-25 5-34 14-9 10-14 22-14 35v232c0 13 5 25 14 34 9 9 21 14 34 14h419c13 0 25-5 34-14 10-9 15-21 15-34v-33h-183c-21 0-40-8-55-22-14-15-22-34-22-55v-171h-64z m608-61c0-13-5-25-14-34-9-10-21-15-34-15h-40c-5 0-9-2-11-5-3-4-4-8-3-12l15-65-96 79c-3 2-6 3-9 3h-275c-13 0-25 5-34 15-10 9-15 21-15 34v232c0 13 5 25 15 34 9 10 21 15 34 15h419c13 0 25-5 34-15 9-9 14-21 14-34v-232z m-394 158c-26 0-47-21-47-47 0-27 21-48 47-48 27 0 48 21 48 48 0 26-21 47-48 47z m0-66c-10 0-19 8-19 19 0 10 9 19 19 19 11 0 19-9 19-19 0-11-8-19-19-19z m136 66c-26 0-48-21-48-47 0-27 22-48 48-48 26 0 48 21 48 48 0 26-22 47-48 47z m0-66c-11 0-19 8-19 19 0 10 8 19 19 19 10 0 19-9 19-19 0-11-9-19-19-19z m135 66c-26 0-48-21-48-47 0-27 22-48 48-48 26 0 48 21 48 48 0 26-22 47-48 47z m0-66c-10 0-19 8-19 19 0 10 9 19 19 19 11 0 19-9 19-19 0-11-8-19-19-19z" horiz-adv-x="1000" />
<glyph glyph-name="29" unicode="&#xe82b;" d="m893 667h-780c-8 0-15-6-15-14v-637c0-8 7-14 15-14h780c8 0 14 6 14 14v637c0 8-6 14-14 14z m-15-29v-130h-747c-1 0-2-1-4-2v132h751z m-751-608v451c2-1 3-2 4-2h747v-449h-751z m458 497c25 0 46 21 46 46s-21 46-46 46c-26 0-46-20-46-46s20-46 46-46z m0 64c10 0 17-8 17-18s-7-17-17-17c-10 0-18 8-18 17s8 18 18 18z m111-64c26 0 47 21 47 46s-21 46-47 46-46-20-46-46 21-46 46-46z m0 64c10 0 18-8 18-18s-8-17-18-17c-9 0-17 8-17 17s8 18 17 18z m112-64c25 0 46 21 46 46s-21 46-46 46c-26 0-46-20-46-46s20-46 46-46z m0 64c9 0 17-8 17-18s-8-17-17-17c-10 0-18 8-18 17s8 18 18 18z m-429-399h-112c-8 0-14-7-14-15v-98c0-8 6-15 14-15h112c8 0 15 7 15 15v98c0 8-7 15-15 15z m-14-99h-84v70h84v-70z m204 156h-112c-8 0-15-6-15-14v-156c0-8 7-15 15-15h112c8 0 14 7 14 15v156c0 8-6 14-14 14z m-15-156h-83v128h83v-128z m207 226h-112c-8 0-15-7-15-15v-225c0-8 7-15 15-15h112c8 0 14 7 14 15v225c0 8-6 15-14 15z m-14-226h-84v197h84v-197z m-485 155c2 0 3 1 5 1l441 141-13-28c-3-7 0-16 7-19 2-1 4-2 6-2 5 0 11 4 13 9l29 61c1 4 1 8 0 11-1 4-4 7-7 8l-62 29c-7 3-15 0-19-7-3-7 0-16 7-19l31-15-442-142c-8-2-12-10-9-18 2-6 7-10 13-10z" horiz-adv-x="1000" />
<glyph glyph-name="49" unicode="&#xe82c;" d="m793 750c-15 15-34 23-55 23h-485c-21 0-41-8-55-23-15-14-23-34-23-54v-689c0-21 8-40 23-55 15-14 34-22 55-22h485c21 0 40 8 55 22 15 15 23 34 23 55v689c0 20-8 40-23 54z m-6-743c0-13-5-25-14-34-10-10-22-15-35-15h-485c-13 0-26 5-35 15-9 9-14 21-14 34v689c0 13 5 25 14 34 9 9 22 14 35 14h485c13 0 25-5 35-14 9-9 14-21 14-34v-689z m-28 699h-527c-8 0-15-6-15-14v-624c0-8 7-14 15-14h527c8 0 15 6 15 14v624c0 8-7 14-15 14z m-14-624h-499v595h499v-595z m-176-41h-147c-8 0-14-6-14-14v-34c0-8 6-15 14-15h147c8 0 14 7 14 15v34c0 8-6 14-14 14z m-15-34h-118v5h118v-5z m-162 255c14-12 31-22 51-28 20-7 43-10 68-10 17 0 33 1 47 4 14 3 27 8 39 14 11 6 21 13 30 22 8 8 15 18 21 29h-33c-9-11-20-20-34-27-13-6-29-10-48-13-24-2-45-1-64 3-19 4-36 11-49 21-13 10-24 22-31 37-7 14-10 31-10 48 0 14 1 27 5 39 3 13 8 25 14 35 7 12 16 22 27 30 10 9 22 15 36 19 14 5 30 7 46 7 17 0 32-3 45-7 13-5 23-11 32-19 9-8 16-17 21-28 4-11 7-23 7-35 0-15-4-28-10-41-7-12-14-22-23-30-9-7-16-10-22-10-1 0-3 0-4 2-1 1-2 3-2 5 0 2 1 7 3 14l23 110h-41l-4-17c-8 14-22 21-40 21-16 0-31-5-44-15-12-10-22-23-29-38-7-16-11-32-11-48 0-15 4-28 11-39 6-10 15-18 26-22 11-5 22-6 34-4 11 3 22 8 30 17 2-6 5-11 10-13 4-3 11-5 19-5 15 0 28 3 40 9 13 7 24 15 33 25 9 11 16 23 21 36 5 13 7 27 7 40 0 18-3 34-9 49-6 15-15 27-26 38-12 11-26 19-42 25-17 5-34 8-54 8-24 0-46-4-65-12-20-8-37-19-51-33-13-14-24-30-31-49-7-19-11-40-11-62 0-21 4-40 11-57 7-17 17-32 31-45z m126 97c-4-12-9-21-16-29-8-8-16-12-26-12-8 0-15 4-20 10-5 7-8 16-8 29 0 12 2 23 6 34 4 12 10 21 17 28 7 7 15 10 24 10 5 0 9 0 12-2 4-2 7-4 9-8 3-3 5-7 6-11 1-4 2-9 2-15 0-11-2-22-6-34z" horiz-adv-x="1000" />
<glyph glyph-name="69" unicode="&#xe82d;" d="m861 404c8 0 15 7 15 15v74c0 8-7 14-15 14h-57l-253 235c-29 27-80 27-109 0l-252-235h-58c-7 0-14-6-14-14v-74c0-8 7-15 14-15h50v-269h-19c-7 0-14-6-14-14v-61h-17c-7 0-14-6-14-14v-74c0-8 7-14 14-14h729c8 0 15 6 15 14v74c0 8-7 14-15 14h-16v61c0 8-7 14-15 14h-22v269h53z m-14-418h-700v46h700v-46z m-385 735c19 17 51 17 70 0l229-214h-529l230 214z m-315-243h700v-45h-700v45z m491-343v269h55v-269h-55z m-286 269v-269h-55v269h55z m29-269v269h58v-269h-58z m86 269h55v-269h-55v269z m84-269v269h58v-269h-58z m-341 269h58v-269h-58v269z m606-343h-638v45h638v-45z m-37 74h-57v269h57v-269z" horiz-adv-x="1000" />
<glyph glyph-name="68" unicode="&#xe82e;" d="m847 364c-5 5-11 8-17 11v133 139c0 20-8 40-23 54-14 15-34 23-54 23h-535c-20 0-40-8-54-23-15-14-23-34-23-54v-13-389-203c0-21 8-40 23-55 14-15 34-23 54-23h535c20 0 40 8 54 23 15 15 23 34 23 55v149c6 3 12 6 17 11 14 15 22 34 22 55v52c0 21-8 40-22 55z m-677 283c0 13 5 25 14 34 9 9 21 14 34 14h535c13 0 25-5 34-14 9-9 14-21 14-34v-81c-13 11-28 18-45 19v74c0 8-7 14-15 14h-514c-8 0-15-6-15-14v-73c-10 2-20 6-28 13-9 10-14 22-14 35v13z m557-18h-486v16h486v-16z m-486-29h486v-15h-486v15z m560-558c0-13-5-25-14-35-9-9-22-14-34-14h-535c-13 0-25 5-34 14-9 10-14 22-14 35v532c13-12 30-18 48-18h9 514 12c13 0 25-5 34-14 9-9 14-21 14-34v-123c-3 0-6 2-9 2h-212c-21 0-40-8-55-23-14-14-22-34-22-55v-52c0-21 8-40 22-55 15-14 34-22 55-22h212c3 0 6 1 9 1v-139z m40 215c0-13-5-25-14-34-10-10-22-15-35-15h-212c-13 0-25 5-34 15-9 9-15 21-15 34v52c0 13 6 26 15 35 9 9 21 14 34 14h212c13 0 25-5 34-14 10-9 15-22 15-35v-52z m-234 74c-26 0-48-21-48-48s22-48 48-48 48 22 48 48-21 48-48 48z m0-67c-10 0-19 9-19 19 0 11 9 20 19 20 11 0 20-9 20-20 0-10-9-19-20-19z" horiz-adv-x="1000" />
<glyph glyph-name="48" unicode="&#xe82f;" d="m674-78h-221c-8 0-15 6-15 14v93c-26 17-117 83-148 193-10 34-29 70-48 106-34 65-67 127-26 159 9 8 19 11 30 11 54 0 95-99 106-129 3-7 6-13 9-16 0 3 0 7 0 13v351c0 35 29 63 64 63s64-28 64-63v-90c10 7 22 11 35 11 35 0 64-29 64-64v-11c10 7 22 11 35 11 35 0 63-29 63-64v-1c10 7 23 11 36 11 35 0 63-29 63-64v-93c0-158 0-263-96-333v-94c0-8-7-14-15-14z m-207 29h193v86c0 5 2 9 6 12 91 62 91 157 90 314v93c0 19-15 35-34 35-20 0-36-16-36-35v-66c0-7-6-14-14-14s-14 7-14 14v120c0 19-16 35-35 35s-35-16-35-35v-84c0-8-7-15-15-15s-14 7-14 15v148c0 19-16 35-35 35-19 0-35-16-35-35v-122c0-8-6-14-14-14-8 0-15 6-15 14v265c0 19-15 34-35 34-19 0-35-15-35-34v-351c0-38-14-46-26-46-22 0-35 30-39 39-24 64-57 111-79 111-4 0-8-2-12-5-22-17 6-72 34-124 19-37 39-75 49-111 33-116 142-180 143-180 4-3 7-8 7-13v-86z" horiz-adv-x="1000" />
<glyph glyph-name="28" unicode="&#xe830;" d="m274 222c61 0 110 49 110 109 0 60-49 109-110 109-60 0-109-49-109-109 0-60 49-109 109-109z m0 189c45 0 81-36 81-80 0-45-36-81-81-81-44 0-80 36-80 81 0 44 36 80 80 80z m133-255c-1 27-10 53-28 78-3 3-7 5-11 6-4 0-8-1-11-4-47-43-118-43-165 0-3 3-7 4-11 4-5-1-8-3-11-6-18-26-28-51-28-78l-5-163c-1-4 1-8 4-11 2-2 6-4 10-4h247c0 0 0 0 1 0 8 0 14 6 14 14 0 2 0 4-1 5l-5 159z m-241-149l4 148c1 17 6 33 15 49 19-13 40-21 62-25l-15-122c-1-4 1-8 3-12 3-3 7-4 11-4h57c0 0 0 0 1 0 8 0 14 6 14 14 0 2-1 4-1 6l-15 118c22 4 43 12 62 25 9-16 14-32 15-49l4-148h-217z m458 704c-149 0-270-95-270-210 0-56 28-109 79-148l-32-73c-2-6-1-12 4-16 2-3 6-4 10-4 2 0 4 0 6 1l95 48c35-12 71-18 108-18 148 0 270 94 270 210 0 115-122 210-270 210z m0-392c-36 0-71 7-104 19-4 1-8 1-12-1l-65-32 21 47c2 6 0 13-5 17-50 35-77 82-77 132 0 100 108 181 242 181 133 0 241-81 241-181 0-100-108-182-241-182z m128 271h-248c-8 0-15-6-15-14s7-14 15-14h248c7 0 14 6 14 14s-7 14-14 14z m0-75h-248c-8 0-15-6-15-14s7-14 15-14h248c7 0 14 6 14 14s-7 14-14 14z m0-75h-248c-8 0-15-6-15-14 0-8 7-15 15-15h248c7 0 14 7 14 15 0 8-7 14-14 14z" horiz-adv-x="1000" />
<glyph glyph-name="08" unicode="&#xe831;" d="m493 776c-235 0-427-192-427-428s192-427 427-427c236 0 428 192 428 427s-192 428-428 428z m348-620h-105c18 54 29 114 30 178h125c-3-65-21-125-50-178z m-745 178h125c1-64 12-124 29-178h-104c-29 53-48 113-50 178z m50 207h105c-18-54-29-114-30-178h-125c2 64 21 124 50 178z m452-178c-1 55-4 118-11 178h120c18-54 29-114 30-178h-139z m-180 0c0 68 4 127 10 178h131c5-51 9-110 10-178h-151z m151-29c-1-68-5-128-10-178h-131c-6 50-10 110-10 178h151z m15 235c-10 71-25 133-46 171 66-20 123-83 159-171h-113z m-29 0h-123c17 117 44 178 61 178 18 0 45-61 62-178z m-152 0h-113c36 88 93 151 159 171-21-38-36-100-46-171z m-3-28c-7-60-10-123-11-178h-139c1 64 12 124 30 178h120z m-150-207h139c1-56 4-118 11-178h-120c-18 53-29 113-30 178z m153-207c10-70 25-133 46-170-66 20-123 83-159 170h113z m29 0h123c-17-116-44-178-62-178-17 0-44 62-61 178z m152 0h113c-36-87-93-150-159-170 21 37 36 100 46 170z m3 29c7 60 10 122 11 178h139c-1-65-12-125-30-178h-120z m179 207c-1 64-12 124-30 178h105c29-54 47-114 50-178h-125z m59 206h-99c-25 66-62 119-105 155 84-28 156-82 204-155z m-459 155c-43-36-80-89-106-155h-98c48 73 120 127 204 155z m-204-597h98c26-65 63-119 106-155-84 29-156 83-204 155z m459-155c43 36 80 90 105 155h99c-48-72-120-126-204-155z" horiz-adv-x="1000" />
<glyph glyph-name="07" unicode="&#xe832;" d="m840 682c-14 15-34 23-55 23h-572c-21 0-40-8-55-23-15-15-23-34-23-55v-572c0-21 8-40 23-55 15-15 34-23 55-23h572c21 0 41 8 55 23 15 15 23 34 23 55v572c0 21-8 40-23 55z m-20-20c9-10 14-22 14-35v-272h-320v321h271c13 0 26-5 35-14z m-642 0c10 9 22 14 35 14h272v-321h-321v272c0 13 5 25 14 35z m0-642c-9 9-14 22-14 35v272h321v-321h-272c-13 0-25 5-35 14z m642 0c-9-9-22-14-35-14h-271v321h320v-272c0-13-5-26-14-35z m-234 476h176c8 0 14 6 14 14 0 8-6 14-14 14h-176c-8 0-15-6-15-14 0-8 7-14 15-14z m176-279h-176c-8 0-15-6-15-14 0-8 7-14 15-14h176c8 0 14 6 14 14 0 8-6 14-14 14z m0-77h-176c-8 0-15-6-15-14s7-15 15-15h176c8 0 14 7 14 15s-6 14-14 14z m-526 356h74v-74c0-8 7-15 15-15 7 0 14 7 14 15v74h74c8 0 14 6 14 14 0 8-6 14-14 14h-74v74c0 8-7 15-14 15-8 0-15-7-15-15v-74h-74c-8 0-14-6-14-14 0-8 6-14 14-14z m109-332l52 53c6 5 6 14 0 20-5 5-15 5-20 0l-52-52-53 52c-5 6-15 6-20 0-6-6-6-15 0-20l52-53-52-52c-6-6-6-15 0-20 3-3 6-4 10-4s7 1 10 4l53 52 52-52c3-3 6-4 10-4s7 1 10 4c6 5 6 14 0 20l-52 52z" horiz-adv-x="1000" />
<glyph glyph-name="27" unicode="&#xe833;" d="m903 693c-14 14-34 22-55 22h-698c-20 0-40-8-54-22-15-15-23-34-23-55v-437c0-21 8-41 23-55 14-15 34-23 54-23h218v-62h-49c-8 0-14-7-14-15v-54c0-8 6-15 14-15h379c8 0 15 7 15 15v54c0 8-7 15-15 15h-49v62h199c21 0 41 8 55 23 15 14 23 34 23 55v437c0 21-8 40-23 55z m-787-21c9 10 21 15 34 15h698c13 0 26-5 35-15 9-9 14-21 14-34v-409h-795v409c0 13 5 25 14 34z m568-666h-351v26h351v-26z m-64 55h-223v62h223v-62z m228 91h-214-251-233c-13 0-25 5-34 14-9 9-14 21-14 34h795c0-13-5-25-14-34-9-9-22-14-35-14z m-704 103h710c8 0 15 6 15 14v376c0 8-7 14-15 14h-710c-8 0-14-6-14-14v-376c0-8 6-14 14-14z m15 375h681v-347h-681v347z" horiz-adv-x="1000" />
<glyph glyph-name="47" unicode="&#xe834;" d="m490 40h-110c-35 0-63 29-63 64 0 13 4 25 10 35h0c-36 0-64 28-64 63 0 13 4 25 10 35h-10c-35 0-64 29-64 64 0 13 4 25 10 35h-89c-35 0-64 29-64 64s29 64 64 64h350c6 0 11 0 14 1-4 2-9 5-17 8-26 10-114 46-127 94-4 15-1 30 9 43 10 12 24 18 41 18 33 0 74-22 119-45 35-19 72-38 106-47 110-32 175-123 192-149h93c8 0 15-6 15-14v-222c0-8-7-14-15-14h-93c-67-92-165-97-317-97z m-110 99c-19 0-35-16-35-35s16-35 35-35l110 0c150 0 238 4 298 90 2 4 7 6 11 6h87v193h-87c-5 0-9 3-12 7-1 1-65 110-180 143-37 10-75 30-111 49-42 22-80 42-106 42-11 0-15-4-18-7-5-6-6-11-4-17 6-23 51-53 109-75 22-8 43-23 40-42-3-15-19-23-47-23h-350c-19 0-35-16-35-35 0-19 16-35 35-35h265c8 0 14-6 14-14s-6-15-14-15h-122c-20 0-35-16-35-35 0-19 15-35 35-35h148c8 0 14-6 14-14s-6-15-14-15h-84c-20 0-35-15-35-35s15-35 35-35h119c8 0 15-6 15-14s-7-14-15-14h-66z" horiz-adv-x="1000" />
<glyph glyph-name="67" unicode="&#xe835;" d="m102 74h244c1 0 1 0 1 0 1 0 1 0 1 0h245c1 0 1 0 1 0 1 0 1 0 1 0h245c8 0 14 6 14 14v434c0 5-2 9-6 12-4 2-9 3-13 1l-245-89c0 0 0 0-1-1 0 0 0 1-1 0l-55-20-122 76c-3 3-8 3-12 1l-56-20c0 0 0-1-1-1 0 0 0 0-1 0l-244-90c-6-2-10-7-10-13v-290c0-8 7-14 15-14z m508 349l216 78v-398h-216v320z m-247 35l39 15 121-76c4-2 9-3 13-1l43 16v-309h-216v355z m-247-90l216 79v-344h-216v265z m795 266l-58 17c-8 3-16-2-18-9-2-8 2-16 10-18l20-6-332-121-122 76c-3 2-8 3-12 1l-320-118c-7-2-11-11-8-18 2-6 7-9 13-9 2 0 3 0 5 1l313 115 121-76c4-3 9-3 13-2l337 123-8-15c-4-7-2-16 5-20 2-1 5-2 7-2 5 0 10 3 13 8l30 53c2 3 2 8 0 12-1 4-5 7-9 8z m-60-591h-760c-8 0-15-6-15-14s7-15 15-15h760c8 0 14 7 14 15s-6 14-14 14z" horiz-adv-x="1000" />
<glyph glyph-name="66" unicode="&#xe836;" d="m948 420c-1 1 0 2-1 3l-136 262 35 9c4 1 7 4 9 7 2 3 2 7 1 11l-13 51c-2 8-10 12-18 10l-291-78v45c0 8-6 14-14 14h-66c-8 0-15-6-15-14v-70l-312-84c-4-1-7-3-9-7-2-3-2-7-1-11l13-51c2-6 8-10 14-10 1 0 3 0 4 0l22 6-127-246c-1-1 0-2-1-3-3-3-6-6-6-11 0-77 73-139 162-139s162 62 162 139c0 5-3 8-6 11 0 1 0 2 0 3l-135 259 220 59v-494l-59-77h-43c-8 0-14-6-14-14v-53c0-8 6-14 14-14h299c8 0 14 6 14 14v53c0 8-6 14-14 14h-43l-59 77v520l232 62-130-250c0-1 0-2 0-3-4-3-6-6-6-11 0-77 73-139 162-139s162 62 162 139c0 5-3 8-6 11z m-750 85l123-238h-246l123 238z m0-362c-67 0-123 42-132 96h264c-8-54-64-96-132-96z m270 582h38v-37l-38-11v48z m-320-163l671 180 6-24-671-179-6 23z m473-601h-269v25h35 199 35v-25z m-205 53l45 58h52l44-58h-141z m90 87h-38v492l38 10v-502z m409 322h-246l123 237 123-237z m-123-124c-68 0-124 42-132 95h264c-9-53-65-95-132-95z" horiz-adv-x="1000" />
<glyph glyph-name="46" unicode="&#xe837;" d="m623 38c-75-53-179-53-254 0-6 4-15 3-20-4-4-6-3-15 4-20 42-30 92-46 143-46s101 16 144 46c6 5 8 14 3 20-4 7-13 8-20 4z m-40 57c7 5 8 14 3 20-4 7-13 8-20 3-41-29-99-29-140 0-7 5-16 4-20-3-5-6-3-15 3-20 26-18 56-28 87-28 31 0 61 10 87 28z m163 386c-2 0-5 0-8 0 1 2 1 4 1 6 0 128-105 233-233 233-111 0-205-77-228-184-94-5-169-83-169-178 0-98 80-178 178-178h459c83 0 151 68 151 150 0 83-68 151-151 151z m0-272h-459c-82 0-149 67-149 149s67 149 148 149c8-1 17 4 19 12 15 100 100 172 201 172 112 0 204-92 204-204 0-5-1-10-1-14l-1-7c-1-5 1-9 4-12 3-3 8-5 13-4 7 1 14 2 21 2 67 0 122-54 122-122 0-67-55-121-122-121z" horiz-adv-x="1000" />
<glyph glyph-name="26" unicode="&#xe838;" d="m903 693c-14 14-34 22-55 22h-698c-20 0-40-8-54-22-15-15-23-34-23-55v-437c0-21 8-41 23-55 14-15 34-23 54-23h218v-62h-49c-8 0-14-7-14-15v-54c0-8 6-15 14-15h379c8 0 15 7 15 15v54c0 8-7 15-15 15h-49v62h199c21 0 41 8 55 23 15 14 23 34 23 55v437c0 21-8 40-23 55z m-787-21c9 10 21 15 34 15h698c13 0 26-5 35-15 9-9 14-21 14-34v-409h-795v409c0 13 5 25 14 34z m568-666h-351v26h351v-26z m-64 55h-223v62h223v-62z m228 91h-214-251-233c-13 0-25 5-34 14-9 9-14 21-14 34h795c0-13-5-25-14-34-9-9-22-14-35-14z m-704 103h710c8 0 15 6 15 14v376c0 8-7 14-15 14h-710c-8 0-14-6-14-14v-376c0-8 6-14 14-14z m15 375h681v-347h-681v347z m615-120c-10 0-19-4-26-11l-74 33c0 0 0 0 0 0 0 21-17 37-37 37-21 0-38-16-38-37 0-5 1-9 3-13l-87-80c-5 2-10 3-16 3-9 0-18-4-25-10l-75 34c0 1 0 1 0 1 0 21-16 37-37 37-20 0-37-16-37-37 0-1 1-3 1-4l-79-46c-6 5-13 8-22 8-20 0-37-16-37-37 0-20 17-37 37-37 21 0 37 17 37 37 0 2 0 3 0 5l78 45c7-5 14-8 22-8 10 0 19 4 25 10l75-34c0 0 0 0 0-1 0-20 17-37 37-37 21 0 38 17 38 37 0 5-2 9-3 13l87 80c5-2 10-3 16-3 9 0 18 4 25 10l74-32c0 0 0 0 0 0 0-21 17-37 38-37 20 0 37 16 37 37 0 20-17 37-37 37z" horiz-adv-x="1000" />
<glyph glyph-name="06" unicode="&#xe839;" d="m307 246c11 0 34 13 67 39v-180c0-11 3-19 8-24 4-6 11-9 19-9 18 0 27 14 27 40v227c0 10-2 17-6 22-4 6-10 9-17 9-6 0-10-2-13-4-2-2-7-9-14-19-8-10-16-20-26-28-9-8-22-16-38-24-11-5-18-9-22-12-5-3-7-8-7-15 0-6 2-11 7-15 4-5 9-7 15-7z m256-161c15-8 34-13 58-13 21 0 39 5 55 14 17 10 29 22 38 38 8 15 12 33 12 52 0 13-2 26-7 37-4 12-11 21-19 30-9 8-18 15-29 20-11 4-23 7-36 7-16 0-33-5-52-15l12 64h94c9 0 17 2 22 6 5 4 7 10 7 17 0 16-10 23-31 23h-104c-12 0-20-2-25-7-5-5-8-14-10-25l-17-95c-1-8-2-13-2-13 0-6 3-12 8-16 5-5 10-7 17-7 6 0 13 3 23 10 9 7 16 12 21 15 5 2 13 4 24 4 9 0 18-2 25-7 8-4 14-11 18-20 5-9 7-20 7-32 0-12-2-23-6-32-4-9-10-16-18-22-8-5-17-8-27-8-11 0-21 4-30 10-9 7-16 16-21 28-6 12-14 19-25 19-6 0-12-3-16-7-4-5-7-10-7-15 0-8 4-18 10-30 6-11 16-21 31-30z m310 506c-15 14-34 22-55 22h-44v31c0 22-18 40-41 40-22 0-40-18-40-40v-31h-77v31c0 22-18 40-40 40s-41-18-41-40v-31h-76v31c0 22-19 41-41 41-23 0-41-19-41-41v-31h-76v31c0 22-18 41-41 41s-41-19-41-41v-31h-35c-21 0-40-8-55-22-15-15-23-35-23-55v-475c0-21 8-40 23-55 15-14 34-22 55-22h634c21 0 40 8 55 22 14 15 22 34 22 55v475c0 20-8 40-22 55z m-152 53c0 7 6 12 12 12 7 0 12-6 12-12v-87c0-6-5-11-12-11-6 0-12 5-12 11v87z m-157 0c0 6 5 12 12 12 6 0 12-5 12-12v-87c0-6-6-11-12-11-7 0-12 5-12 11v87z m-158 0c0 6 5 12 12 12 6 0 12-6 12-12v-86c0-7-6-12-12-12-7 0-12 5-12 12v86z m-158 0c0 6 6 12 12 12 7 0 12-6 12-12v-86c0-7-5-12-12-12-6 0-12 5-12 12v86z m619-583c0-13-5-25-15-34-9-10-21-15-34-15h-634c-13 0-26 5-35 15-9 9-14 21-14 34v366h732v-366z m0 394h-732v81c0 13 5 25 14 34 10 10 22 15 35 15h35v-27c0-23 19-41 41-41s41 18 41 41v27h76v-27c0-23 18-41 41-41 22 0 41 18 41 41v27h76v-28c0-22 18-40 41-40s40 18 40 40v28h77v-28c0-22 18-40 40-40 23 0 41 18 41 40v28h44c13 0 25-5 34-15 10-9 15-21 15-34v-81z" horiz-adv-x="1000" />
<glyph glyph-name="05" unicode="&#xe83a;" d="m927-93v534c0 4-2 8-5 10 0 0 0 1 0 1l-58 51v148c0 8-7 15-14 15h-170l-169 149c-6 5-14 4-19 0l-170-149h-171c-8 0-15-7-15-15v-148l-57-51c-1 0-1-1-1-1-2-2-4-6-4-10v-535c0-1 0-2 0-2 1-1 0-2 1-4 0-1 1-2 2-3 1-1 1-1 2-2 2-2 6-4 9-4h824c1 0 1 0 1 0 8 0 14 7 14 15 0 0 0 0 0 1z m-63 558l27-24-27-24v48z m34-56v-472l-268 237 268 235z m-397 376l135-119h-270l135 119z m-336-148h670v-245l-226-199-98 86c-6 5-14 5-19 0l-100-87-227 200v245z m205-464l-268-236v472l268-236z m-234 291v-47l-26 24 26 23z m-10-544l375 330 373-330h-748z" horiz-adv-x="1000" />
<glyph glyph-name="25" unicode="&#xe83b;" d="m908 89l-154 131c13 24 24 49 30 74h73c8 0 14 7 14 14v132c0 8-6 15-14 15h-73c-7 28-18 56-34 82l52 51c5 6 5 15 0 21l-93 93c-6 5-15 5-21 0l-51-52c-26 16-54 27-83 35v72c0 8-6 15-14 15h-132c-8 0-14-7-14-15v-72c-29-8-56-19-82-35l-52 52c-5 5-15 5-20 0l-93-93c-6-6-6-15 0-21l51-51c-15-26-27-54-34-82h-73c-8 0-14-7-14-15v-132c0-7 6-14 14-14h73c7-28 19-56 34-82l-51-52c-3-2-5-6-5-10s2-7 5-10l93-93c5-6 15-6 20 0l52 51c26-15 53-26 82-34v-73c0-8 6-14 14-14h132c8 0 14 6 14 14v73c25 7 50 18 74 31l132-155c12-14 30-23 49-24 0 0 2 0 3 0 18 0 35 7 47 20l53 53c14 14 21 32 20 51-1 19-9 37-24 49z m-371 1c-7-2-11-8-11-14v-70h-103v70c0 6-5 12-12 14-33 7-64 20-94 39-6 3-13 3-18-2l-49-50-73 73 50 50c4 4 5 12 2 17-19 30-32 62-40 95-1 6-7 11-14 11h-69v103h69c7 0 13 5 14 11 8 33 21 65 40 94 3 6 2 13-2 18l-50 50 73 72 49-49c5-5 13-6 18-2 30 19 61 32 94 39 7 2 12 7 12 14v70h103v-70c0-7 4-12 11-14 33-7 65-20 94-39 6-3 13-3 18 2l49 49 73-72-49-50c-5-5-6-12-2-18 19-30 32-61 39-94 1-6 7-11 14-11h70v-103h-70c-7 0-13-5-14-11-6-26-16-50-28-73l-46 40c13 29 23 61 23 95 0 129-105 234-234 234-128 0-233-105-233-234 0-128 105-233 233-233 35 0 66 9 96 23l39-46c-23-13-47-23-72-28z m46 390c-39 39-98 54-151 38-5-2-8-6-10-10-1-5 1-11 4-14l88-88-72-71-87 87c-4 4-9 5-14 4-5-1-9-5-10-10-16-54-2-112 37-151 39-38 96-53 148-38l35-41c-24-10-49-16-77-16-113 0-205 91-205 204 0 113 92 205 205 205 113 0 205-92 205-205 0-27-7-52-17-76l-40 34c15 53 1 109-39 148z m309-470l-53-54c-7-7-17-11-27-11v-14l-2 14c-11 0-21 5-28 14l-250 293c-3 4-7 5-11 5-1 0-3 0-4 0-45-16-95-5-128 28-26 26-39 62-36 98l79-79c5-5 15-5 20 0l92 92c6 6 6 15 0 20l-78 79c36 3 72-9 97-35 34-34 45-83 29-128-2-6 0-12 4-16l294-249c8-7 13-17 13-28 1-11-3-22-11-29z m-74 65c-25 0-45-20-45-44 0-25 20-45 45-45 24 0 44 20 44 45 0 24-20 44-44 44z m0-60c-9 0-16 7-16 16s7 16 16 16c8 0 15-7 15-16s-7-16-15-16z" horiz-adv-x="1000" />
<glyph glyph-name="45" unicode="&#xe83c;" d="m500 645c-150 0-272-122-272-272 0-93 47-179 125-229 4-2 7-4 10-6 15-9 22-14 22-39v-55c0-8 7-14 15-14h199c8 0 15 6 15 14v55c0 25 4 28 26 42 82 50 131 136 131 232 0 150-122 272-271 272z m125-480c-24-15-40-25-40-66v-41h-171v41c0 41-19 53-35 63-3 2-6 4-10 6-70 45-112 122-112 205 0 134 109 243 243 243s242-109 242-243c0-85-43-163-117-208z m-26-145h-199c-8 0-15-6-15-14v-16c0-19 8-38 22-52 10-10 23-17 37-20 8-23 30-39 56-39 25 0 47 16 55 39 14 3 27 10 37 20 14 14 22 32 22 52v16c0 8-7 14-15 14z m-14-30c0-12-5-23-13-32-10-9-21-12-29-12-7 0-13-6-14-12-2-16-15-27-29-27-15 0-28 11-30 27-1 6-7 12-13 12-8 0-20 3-30 12-8 9-13 20-13 32v1h171v-1z m57 550l-13-13c-6 3-12 5-18 7v18c0 8-6 15-14 15h-46c-8 0-15-7-15-15v-18c-6-2-12-4-18-7l-13 13c-5 5-14 5-20 0l-33-33c-5-6-5-15 0-20l14-13c-3-6-6-12-8-18h-18c-8 0-15-7-15-15v-46c0-8 7-14 15-14h18c2-6 5-12 8-18l-14-13c-2-3-3-6-3-9-1 2-1 4-3 5l-18 19c-5 5-14 5-20 0l-4-5c-1 1-2 1-3 1v6c0 8-6 15-14 15h-26c-8 0-14-7-14-15v-6c-1 0-1 0-2-1l-4 4c-6 6-15 6-21 0l-18-18c-2-2-4-6-4-10 0-4 1-7 4-10l4-4c0-1 0-2-1-2h-5c-8 0-15-7-15-15v-25c0-8 7-15 15-15h5c1-1 1-1 1-2l-4-4c-5-6-5-15 0-21l18-18c3-2 7-4 11-4h0c3 0 7 2 10 4l4 4c1 0 1 0 2-1v-5c0-8 6-15 14-15h26c8 0 14 7 14 15v5c1 1 2 1 3 1l4-4c3-2 6-4 10-4h0c4 0 8 2 10 4l18 19c6 5 6 14 0 20l-4 4c1 1 1 1 1 2h6c8 0 14 7 14 15v25c0 8-6 15-14 15h-6c0 0 0 1-1 2l4 4c3 2 4 6 4 9 1-2 1-4 2-6l33-32c6-6 15-6 20 0l14 13c5-3 11-5 17-7v-19c0-8 7-14 15-14h46c8 0 14 6 14 14v19c6 2 12 4 18 7l13-13c6-6 15-6 21 0l32 32c6 6 6 15 0 21l-13 13c3 6 6 12 8 18h18c8 0 14 6 14 14v46c0 8-6 15-14 15h-18c-2 6-5 12-8 18l13 13c6 5 6 15 0 20l-32 33c-6 5-15 5-21 0z m-223-257c-2-6-4-10-6-15-3-4-3-8-2-12-4 1-9 1-12-2-5-3-10-5-15-6-4-1-8-4-10-8-2 4-5 7-9 8-6 1-11 3-15 6-2 2-5 3-8 3-1 0-3-1-4-1 1 4 0 8-2 12-3 5-5 9-6 15-1 4-4 7-8 9 4 2 7 6 8 10 1 5 3 10 6 15 2 4 3 8 2 12 4-1 8-1 12 2 5 3 9 5 14 6 5 1 8 3 10 7 2-4 6-6 10-7 5-1 10-4 15-6 4-3 8-3 12-2-1-4-1-9 2-12 2-5 4-10 6-15 1-4 4-8 7-10-3-1-6-5-7-9z m233 185c6-9 10-19 13-30 1-6 7-11 14-11h15v-17h-15c-7 0-13-5-14-12-3-10-7-20-13-30-3-5-3-13 2-17l11-11-13-13-10 11c-5 5-13 6-18 2-9-6-19-10-30-12-7-2-11-8-11-14v-16h-18v16c0 6-5 12-11 14-11 2-21 6-30 12-6 4-13 3-18-2l-11-11-12 13 11 10c4 5 5 13 2 18-6 10-11 20-13 30-1 7-7 12-14 12h-15v17h15c7 0 13 5 14 11 2 11 7 21 13 30 3 6 2 13-2 18l-11 11 12 12 11-11c5-4 12-5 18-1 9 5 19 10 30 12 6 2 11 7 11 14v15h18v-15c0-7 4-12 11-14 10-2 20-7 30-12 5-4 13-3 18 1l10 11 13-12-11-11c-5-5-5-12-2-18z m-78 6c-31 0-55-25-55-56s24-55 55-55c30 0 55 25 55 55s-25 56-55 56z m0-82c-15 0-27 12-27 26 0 15 12 27 27 27 14 0 26-12 26-27 0-14-12-26-26-26z m-200-62c-20 0-37-17-37-38 0-20 17-37 37-37s37 17 37 37c0 21-16 38-37 38z m126 367c7 0 14 6 14 14v107c0 8-7 15-14 15s-15-7-15-15v-107c0-8 7-14 15-14z m-244-101c3 0 7 1 10 4 5 6 5 15 0 20l-76 76c-6 6-15 6-20 0s-6-15 0-20l75-76c3-3 7-4 11-4z m574 100c-6 6-15 6-21 0l-75-76c-6-5-6-14 0-20 2-3 6-4 10-4s7 1 10 4l76 76c5 5 5 14 0 20z m122-315h-107c-8 0-14-7-14-15s6-14 14-14h107c8 0 14 6 14 14s-6 15-14 15z m-797 0h-107c-8 0-15-7-15-15s7-14 15-14h107c7 0 14 6 14 14s-7 15-14 15z" horiz-adv-x="1000" />
<glyph glyph-name="65" unicode="&#xe83d;" d="m899 623c8 0 14 6 14 14v68c0 8-6 14-14 14h-345c0 1 0 1 0 1 0 28-23 51-51 51s-51-23-51-51c0 0 0 0 1-1h-346c-8 0-14-6-14-14v-68c0-8 6-14 14-14h27v-374h-27c-8 0-14-7-14-15v-67c0-8 6-15 14-15h375l-111-192c-4-7-2-16 5-20 2-1 5-2 7-2 5 0 10 3 13 7l93 161v-196c0-8 6-14 14-14s14 6 14 14v196l93-161c3-4 8-7 13-7 2 0 5 1 7 2 7 4 9 13 5 20l-111 192h375c8 0 14 7 14 15v67c0 8-6 15-14 15h-27v374h27z m-418 97c0 13 10 23 22 23 12 0 22-10 22-23 0 0 1 0 1-1h-46c0 1 1 1 1 1z m-359-30h763v-38h-763v38z m763-509h-763v39h763v-39z m-41 68h-682v374h682v-374z m-625 168h25c5 0 10 3 12 8l12 24 11-23c2-6 8-8 14-9 6 1 12 5 13 11l12 56 37-169c2-7 8-11 14-11 0 0 0 0 0 0 7 0 13 4 14 11l40 160 12-47c1-6 6-10 12-11 5 0 11 2 14 8l13 24 38-66c3-4 9-8 13-7 5 0 10 3 12 8l17 33h20c8 0 15 7 15 14s-7 15-15 15h-29c-5 0-10-3-13-8l-9-17-36 65c-3 4-7 7-13 7-5 0-10-3-12-7l-9-16-16 67c-2 7-8 11-14 11s-13-4-14-11l-39-156-38 175c-3 13-26 13-28 0l-17-77-4 10c-3 5-8 9-13 9 0 0 0 0-1 0-5 0-10-3-12-8l-22-44h-16c-7 0-14-7-14-15s7-14 14-14z m438 45h147c8 0 14 7 14 15s-6 14-14 14h-147c-8 0-14-6-14-14s6-15 14-15z m0-51h147c8 0 14 7 14 15 0 8-6 14-14 14h-147c-8 0-14-6-14-14 0-8 6-15 14-15z m0-50h147c8 0 14 6 14 14s-6 15-14 15h-147c-8 0-14-7-14-15s6-14 14-14z" horiz-adv-x="1000" />
<glyph glyph-name="64" unicode="&#xe83e;" d="m585 389c-17 8-45 16-83 24-27 5-34 10-35 11-3 3-5 7-5 12 0 5 0 18 36 18 25 0 40-11 47-33 3-8 11-11 18-9l72 24c3 1 6 3 8 7 2 3 2 7 1 11-19 52-57 82-114 91v32c0 8-6 14-14 14h-45c-8 0-15-6-15-14v-33c-28-6-53-19-72-39-22-24-33-52-33-85 0-29 9-54 27-75 18-22 54-38 112-50 28-5 39-10 44-13 4-4 6-7 6-13 0-4-1-9-8-15-7-6-19-8-35-8-33 0-51 12-59 39-2 7-9 12-17 10l-77-18c-4 0-7-3-9-6-2-3-3-7-2-11 15-61 57-97 123-107v-41c0-8 7-15 15-15h45c8 0 14 7 14 15v41c39 5 69 20 90 43 23 26 34 55 34 87 0 24-6 46-20 65-13 19-29 33-49 41z m13-174c-18-20-46-32-83-35-8-1-13-7-13-15v-39h-17v39c0 8-5 14-13 15-56 5-91 30-107 73l50 11c10-24 33-47 82-47 23 0 40 5 52 14 13 10 20 23 20 38 0 15-6 28-19 36-10 7-28 13-55 18-62 13-86 29-95 40-14 16-20 35-20 57 0 26 8 47 25 65 18 19 40 29 68 33 7 1 12 7 12 14v30h17v-29c0-8 5-14 13-15 47-4 78-24 96-60l-44-15c-13 26-37 39-69 39-56 0-64-29-64-46 0-13 4-24 13-33 9-8 25-14 50-19 35-7 61-14 77-21 14-6 27-17 37-32 10-14 15-30 15-48 0-25-9-47-28-68z m-105 538c-225 0-408-183-408-409 0-225 183-409 408-409s409 184 409 409c0 226-183 409-409 409z m0-789c-209 0-380 171-380 380s171 380 380 380 380-170 380-380-170-380-380-380z m0 710c-181 0-329-148-329-330s148-330 329-330 330 148 330 330-148 330-330 330z m0-631c-166 0-301 135-301 301 0 166 135 301 301 301 166 0 302-135 302-301 0-166-136-301-302-301z" horiz-adv-x="1000" />
<glyph glyph-name="44" unicode="&#xe83f;" d="m838 524c-14 15-34 23-55 23h-19-31v224c0 8-6 15-14 15h-447c-8 0-15-7-15-15v-224h-30-20c-20 0-40-8-55-23-14-14-22-34-22-54v-306c0-21 8-40 22-55 15-15 34-23 55-23h50v-157c0-8 7-15 15-15h447c8 0 14 7 14 15v157h50c21 0 41 8 55 23 15 15 23 34 23 55v306c0 20-8 40-23 54z m-552 233h418v-210h-418v210z m-14-239h447 31v-180h-509v180h31z m-15-312h-16v18h16v-18z m493 18v-18h-17v18h17z m-46-281h-418v281h418v-281z m-477 310c-8 0-15-6-15-14v-47c0-8 7-15 15-15h30v-62h-50c-13 0-25 5-34 14-9 10-15 22-15 35v306c0 13 6 25 15 34 9 9 21 14 34 14h5v-195c0-8 7-14 15-14h537c8 0 14 6 14 14v195h5c13 0 26-5 35-14 9-9 14-21 14-34v-306c0-13-5-25-14-35-9-9-21-14-35-14h-50v62h31c8 0 14 7 14 15v47c0 8-6 14-14 14m-210 111c11 0 20 9 20 20 0 12-9 21-20 21-12 0-21-9-21-21 0-11 9-20 21-20z m69 0c11 0 21 9 21 20 0 12-10 21-21 21-11 0-21-9-21-21 0-11 10-20 21-20z m69 0c11 0 21 9 21 20 0 12-10 21-21 21-11 0-21-9-21-21 0-11 10-20 21-20z m-345-203h223c8 0 15 6 15 14s-7 15-15 15h-223c-8 0-14-7-14-15s6-14 14-14z m0-55h223c8 0 15 6 15 14s-7 14-15 14h-223c-8 0-14-6-14-14s6-14 14-14z m0-57h223c8 0 15 7 15 15s-7 14-15 14h-223c-8 0-14-6-14-14s6-15 14-15z" horiz-adv-x="1000" />
<glyph glyph-name="24" unicode="&#xe840;" d="m691 486c11 13 20 27 26 43 6 16 9 33 9 50v94h32c7 0 14 6 14 14v75c0 8-7 14-14 14h-486c-8 0-15-6-15-14v-75c0-8 7-14 15-14h31v-94c0-17 3-34 9-50 6-16 15-30 26-43l86-97c7-9 12-20 12-32 0-12-5-23-12-32l-86-97c-11-13-20-28-26-43-6-16-9-33-9-50v-94h-31c-8 0-15-6-15-14v-75c0-8 7-14 15-14h486c7 0 14 6 14 14v75c0 8-7 14-14 14h-32v94c0 17-3 34-9 50-6 15-14 30-26 43l-85 97c-8 9-12 20-12 32 0 12 4 23 12 32l85 97z m-405 215v46h457v-46m0-688v-46h-457v46m298 293l86-97c9-10 16-22 20-34 5-13 8-26 8-40v-94h-366v94c0 13 2 27 7 40 5 12 12 24 21 34l85 97c13 14 19 32 19 51 0 19-6 37-19 51l-85 97c-9 10-16 22-21 34-5 13-7 27-7 40v94h366v-94c0-13-3-27-8-40-4-12-11-24-20-34l-86-97c-12-14-19-32-19-51 0-19 7-37 19-51z m66 230c0 8-6 14-14 14h-242c-8 0-15-6-15-14 0-25 24-49 51-78 27-28 58-60 58-88 0-8 6-15 14-15h31c8 0 14 7 14 15 0 31 30 62 56 90 25 28 47 51 47 76z m-130-152h-5c-7 34-37 66-65 94-14 15-29 31-37 44h204c-8-13-21-27-35-42-26-28-56-60-62-96z m-164-266v-39c0-8 6-15 14-15h287c8 0 15 7 15 15v80c0 5-2 9-5 11-3 3-8 4-12 4l-287-42c-7-1-12-7-12-14z m28-12l259 37v-50h-259v13z" horiz-adv-x="1000" />
<glyph glyph-name="04" unicode="&#xe841;" d="m926 67v535c0 0-1 1-1 1 0 1 1 3 0 4 0 1-2 2-2 3-1 1-1 1-2 2-3 2-6 4-9 4h-825c-3 0-6-2-9-4-1-1-1-1-2-2 0-1-2-2-2-3 0-1 0-3 0-4 0 0-1-1-1-1v-536c0 0 1-1 1-2 0-1 0-2 0-3 0-1 2-2 2-3 1-1 1-2 2-2 3-3 6-4 9-4h825c0 0 0 0 0 0 8 0 15 6 15 14 0 1-1 1-1 1z m-29 31l-267 237 267 235v-472z m-23 489l-376-329-373 329h749z m-772-17l268-237-268-235v472z m23-489l266 233 98-86c3-3 6-4 9-4 4 0 7 1 10 4l100 88 266-235h-749z" horiz-adv-x="1000" />
<glyph glyph-name="03" unicode="&#xe842;" d="m801 745h-552c-8 0-14-6-14-14v-46h-46c-8 0-14-6-14-14v-714c0-8 6-14 14-14h552c8 0 15 6 15 14v46h45c8 0 15 6 15 14v714c0 8-7 14-15 14z m-598-774v685h413v-96c0-8 7-14 15-14h96v-575h-524z m504 603h-62v62l62-62z m80-543h-31v529c0 4-2 7-4 10l-111 111c-3 2-6 3-10 4 0 0 0 0 0 0h-367v31h523v-685z" horiz-adv-x="1000" />
<glyph glyph-name="23" unicode="&#xe843;" d="m861 506c-15 15-34 23-55 23h-52c-4 138-117 250-257 250-139 0-252-112-256-250h-61c-20 0-40-8-55-23-14-14-23-34-23-55v-437c0-21 9-40 23-55 15-14 35-22 55-22h626c21 0 40 8 55 22 15 15 23 34 23 55v437c0 21-8 41-23 55z m-364 244c124 0 224-99 228-221h-56c-4 92-79 165-172 165s-167-73-172-165h-55c4 122 104 221 227 221z m144-221h-287c4 76 67 136 143 136s140-60 144-136z m200-549c-10-10-22-15-35-15h-626c-13 0-25 5-35 15-9 9-14 21-14 34v95h73c8 0 14 7 14 15s-6 14-14 14h-73v84h73c8 0 14 7 14 15s-6 14-14 14h-73v84h73c8 0 14 6 14 14 0 8-6 15-14 15h-73v87c0 13 5 26 15 35 9 9 21 14 34 14h626c13 0 25-5 35-14 9-9 14-22 14-35v-87h-73c-8 0-14-7-14-15 0-8 6-14 14-14h73v-84h-73c-8 0-14-6-14-14s6-15 14-15h73v-84h-73c-8 0-14-6-14-14s6-15 14-15h73v-95c0-13-5-25-14-34z m-348 401c-46 0-84-38-84-84 0-28 14-54 38-69l-26-126c0-4 1-8 3-12s7-5 12-5h115c4 0 8 2 11 5 2 4 4 8 3 12l-25 126c23 15 37 41 37 69 0 46-38 84-84 84z m24-133c-5-3-9-9-7-16l23-118h-80l24 118c1 7-2 13-8 16-19 9-31 28-31 49 0 30 25 55 55 55s55-25 55-55c0-21-12-40-31-49z m-251 209c-8 0-15-6-15-14v-413c0-8 7-14 15-14s14 6 14 14v413c0 8-6 14-14 14z m454 0c-8 0-14-6-14-14v-413c0-8 6-14 14-14s15 6 15 14v413c0 8-7 14-15 14z" horiz-adv-x="1000" />
<glyph glyph-name="43" unicode="&#xe844;" d="m778 712h-552c-8 0-15-6-15-14v-714c0-8 7-14 15-14h379c4 0 8 1 11 4l172 172c3 3 4 7 4 11v541c0 8-6 14-14 14z m-538-28h523v-513h-158c-8 0-14-6-14-14v-158h-351v685z m380-542h123l-123-123v123z m-90-40h-186c-8 0-14-7-14-15s6-14 14-14h186c8 0 14 6 14 14s-6 15-14 15z m-186 39h186c8 0 14 7 14 15s-6 14-14 14h-186c-8 0-14-6-14-14s6-15 14-15z m0 69h315c8 0 15 6 15 14s-7 15-15 15h-315c-8 0-14-7-14-15s6-14 14-14z m158 252c46 0 84 38 84 85s-38 85-84 85-85-38-85-85 38-85 85-85z m0 141c30 0 56-25 56-56s-26-56-56-56-56 25-56 56 25 56 56 56z m-92-326h183c0 0 0 0 1 0 8 0 14 6 14 14 0 2 0 3-1 5l-3 116c-1 20-8 41-22 60-3 3-6 5-10 6-5 0-9-1-12-4-33-31-84-31-117 0-3 3-7 4-11 4-4-1-8-3-10-6-14-20-22-40-22-60l-4-121c0-4 1-7 4-10 3-3 6-4 10-4z m18 134c1 10 4 21 9 31 12-8 26-13 40-16l-11-87c0-4 1-8 4-11 3-3 6-5 11-5h42c0 0 0 0 0 0 8 0 15 6 15 14 0 2-1 4-2 6l-10 83c14 3 28 8 40 16 6-10 9-20 9-31l3-106h-153l3 106z" horiz-adv-x="1000" />
<glyph glyph-name="63" unicode="&#xe845;" d="m976 235l-440 440c-5 5-14 5-20 0l-119-120-120 120c-5 5-14 5-20 0l-222-222c-6-6-6-15 0-21l439-439c3-3 7-4 11-4 3 0 7 1 10 4l119 119 120-119c2-3 6-4 10-4 4 0 7 1 10 4l222 222c5 6 5 15 0 20z m-491-211l-420 419 202 201 109-109-82-82c-5-6-5-15 0-21l300-299-109-109z m259 0l-419 419 201 201 419-419-201-201z m-255 535c-3 0-7-2-10-5l-65-64c-5-6-5-15 0-21 8-7 12-16 12-26s-4-20-12-27c-5-6-5-15 0-21l283-282c2-3 6-4 10-4 3 0 7 1 10 4 14 14 39 14 54 0 5-5 14-5 20 0l65 65c5 6 5 15 0 20-8 8-12 17-12 27 0 10 4 20 12 27 5 6 5 15 0 20l-283 282c-5 6-14 6-20 0-14-14-39-14-53 0-3 3-7 5-11 5z m73-34l264-264c-7-11-10-23-10-36 0-13 3-25 10-36l-46-46c-11 6-24 10-36 10-13 0-26-4-36-10l-264 264c7 10 10 23 10 36 0 12-3 25-10 35l46 47c22-14 51-14 72 0z m22-249l12 13c10-9 21-13 31-12 10 0 18 4 25 10 4 5 7 11 9 17 1 7 0 13-2 19-2 5-7 13-13 23-4 6-6 11-6 13-1 3 0 6 2 8 5 5 12 3 19-4 8-8 9-16 5-24l22-11c7 15 5 31-7 45l10 10-11 11-10-11c-8 7-17 10-26 9-9 0-17-3-24-10-6-6-9-13-10-21-1-7 4-19 14-34 4-6 7-11 7-15 1-3 0-6-2-8-3-3-6-4-10-3-4 0-8 3-12 7-9 9-11 19-6 28l-21 14c-11-17-9-34 5-51l-12-12 11-11z m161-52c10 10 10 27 0 37-10 10-27 10-37 0-10-10-10-27 0-37 10-10 27-10 37 0z m-183 183c10 10 10 26 0 37-10 10-27 10-37 0-10-11-10-27 0-37 10-11 27-11 37 0z" horiz-adv-x="1000" />
<glyph glyph-name="62" unicode="&#xe846;" d="m280 403c-5 0-9-2-12-5-3-4-5-9-5-15v-89c0-22-7-32-21-32-6 0-10 1-13 3-3 3-5 6-6 9-1 4-3 8-4 14-1 5-3 9-5 11-2 3-5 4-10 4-4 0-8-1-11-4-2-3-4-7-4-12 0-5 1-10 2-15 2-5 4-10 6-14 4-8 10-14 18-17 7-3 16-5 27-5 12 0 22 2 31 7 8 5 14 12 18 21 2 5 4 11 4 16 1 5 1 11 1 18v85c0 6-1 11-4 15-3 3-7 5-12 5z m166-11c-12 7-27 11-43 11-13 0-24-2-33-6-10-4-18-10-25-17-7-7-12-16-16-26-3-11-5-22-5-34 0-12 2-24 5-34 4-10 9-19 15-27 7-7 15-13 25-17 10-4 22-6 34-6 13 0 24 2 34 6 10 4 18 9 25 17 7 7 12 16 15 26 3 11 5 22 5 35 0 16-3 31-9 44-6 12-15 22-27 28z m-3-105c-4-8-10-15-17-19-7-4-15-6-23-6-7 0-13 1-18 3-5 3-10 6-15 11-4 5-7 11-9 19-3 7-4 16-4 25 0 9 1 17 4 24 2 8 5 14 9 18 4 5 9 9 14 11 6 3 12 4 19 4 9 0 17-3 24-7 7-4 12-11 16-20 4-8 6-18 6-30 0-13-2-24-6-33z m169 37c16 7 24 19 24 35 0 5 0 10-2 14-2 4-4 8-7 11-3 4-6 7-10 9-4 3-9 5-15 5-6 1-12 2-20 2h-52c-7 0-12-2-15-5-4-3-5-8-5-15v-121c0-7 1-12 4-16 3-3 9-4 16-4h49c8 0 16 0 22 1 7 1 12 2 17 4 8 4 14 9 19 16 5 7 7 16 7 25 0 19-11 32-32 39z m-69 51h26c12 0 21-1 27-4 5-2 8-8 8-16 0-4-1-7-2-10-3-5-6-7-11-9-4-2-10-2-18-2h-30v41z m35-112h-35v47h34c11 0 19-2 25-5 6-4 9-10 9-18 0-16-11-24-33-24z m153-27c13 0 25 2 34 6 10 5 17 11 22 19 5 7 8 16 8 26 0 8-2 15-5 21-2 5-6 10-12 14-5 3-11 6-18 9-8 2-16 5-25 7-7 2-13 3-16 4-3 1-6 2-9 4-3 2-6 4-7 6-2 2-3 5-3 9 0 5 3 9 8 13 5 4 12 5 20 5 9 0 16-1 20-5 4-3 8-8 10-14 3-4 5-7 7-9 2-2 5-3 8-3 4 0 8 2 11 5 2 3 4 6 4 10 0 4-1 9-4 13-2 5-5 9-10 13-5 4-11 8-18 10-7 2-16 4-26 4-12 0-23-2-32-6-9-4-16-9-21-16-5-7-7-15-7-23 0-10 2-18 7-24 4-6 10-11 18-15 8-3 18-7 29-9 9-2 16-4 21-6 5-2 9-4 13-7 3-4 5-8 5-13 0-7-3-13-10-17-6-5-13-7-23-7-7 0-13 1-17 3-5 2-8 5-10 9-3 3-5 7-7 13-2 4-4 7-6 9-2 3-5 4-9 4-4 0-7-2-10-5-3-2-4-6-4-10 0-7 2-14 7-21 4-7 10-13 17-17 11-6 24-9 40-9z m137 355h-172c5 11 9 23 9 36 0 48-40 87-88 87-48 0-88-39-88-87 0-13 3-25 9-36h-416c-8 0-14-7-14-15v-548c0-8 6-15 14-15h584c4 0 8 2 10 4l162 162c2 3 4 6 4 10v387c0 8-6 15-14 15z m-251 95c33 0 59-27 59-59 0-33-26-59-59-59-33 0-59 26-59 59 0 32 26 59 59 59z m-481-124h395l-41-41c-5-6-5-15 0-21 3-2 7-4 11-4 3 0 7 2 10 4l56 57c14-11 31-18 50-18 22 0 42 9 57 23h179v-358h-147c-8 0-14-7-14-15v-147h-556v520z m585-387h112l-112-113v113z" horiz-adv-x="1000" />
<glyph glyph-name="42" unicode="&#xe847;" d="m297 561h315c8 0 14 6 14 14s-6 15-14 15h-315c-8 0-15-7-15-15s7-14 15-14z m0-83h315c8 0 14 7 14 15 0 8-6 14-14 14h-315c-8 0-15-6-15-14 0-8 7-15 15-15z m154-273c24-23 56-36 89-36s65 13 89 36c49 49 49 129 0 178-47 47-130 47-178 0-48-49-48-129 0-178z m21 158c18 18 42 28 68 28s50-10 69-29c38-37 37-99 0-136-37-37-101-37-137 0-38 37-38 99 0 137z m2-41c3-2 5-3 8-3 5 0 9 2 12 7 2 3 5 6 8 9 6 6 12 10 19 13 8 3 11 11 8 19-3 7-11 10-18 8-11-5-21-11-30-20-4-4-8-9-11-14-4-6-2-15 4-19z m400-278l-111 112c-5 5-12 8-18 9v541c0 8-7 15-15 15h-552c-8 0-14-7-14-15v-541c0-4 1-7 4-10l172-173c3-2 7-4 11-4h379c8 0 15 7 15 14v14l46-46c8-8 18-13 30-13 12 0 22 5 30 13l23 23c8 8 13 19 13 30 0 12-5 23-13 31z m-188 96l-27 28c2 1 3 2 4 3 2 1 3 3 4 4l27-27-8-8z m-249 257c28 28 64 43 103 43 39 0 76-15 103-43 28-27 43-64 43-103 0-39-15-75-43-103-55-55-151-55-206 0-27 28-42 64-42 103 0 39 15 76 42 103z m-101-370l-123 124h123v-124z m380-20h-351v158c0 8-6 14-14 14h-158v513h523v-525l-31 30c19 29 30 62 30 97 0 47-19 91-52 123-32 33-76 51-123 51-43 0-83-16-114-44h-129c-8 0-15-6-15-14s7-14 15-14h102c-21-30-33-65-33-102 0-46 18-90 51-123s77-51 123-51c35 0 69 10 97 29l32-32c-2-5-3-9-3-15 0-11 5-22 13-30l37-37v-28z m138-4l-23-23c-5-5-15-5-20 0l-112 112c-3 3-4 6-4 10 0 4 1 8 4 10l23 23c3 3 6 5 10 5 4 0 8-2 10-5l112-111c3-3 4-7 4-11s-1-7-4-10z" horiz-adv-x="1000" />
<glyph glyph-name="22" unicode="&#xe848;" d="m794 608c11 24 19 48 19 66 0 87-71 158-158 158-68 0-125-43-148-103-2 1-5 1-8 1-236 0-428-192-428-427 0-236 192-428 428-428s427 192 427 428c0 120-52 227-132 305z m102-291h-125c-1 64-12 124-29 178h104c29-53 48-113 50-178z m-473 0c1 68 5 127 10 178h131c6-51 9-110 10-178h-151z m151-29c-1-68-4-127-10-178h-131c-5 51-9 110-10 178h151z m29 29c-1 50-4 105-9 159 8-12 16-22 23-32-6-8-10-18-10-29 0-26 21-48 48-48 26 0 48 22 48 48 0 11-4 21-11 29 7 10 16 21 24 33 15-49 25-102 26-160h-139z m139-29c-1-64-12-124-30-178h-120c7 60 10 123 11 178h139z m88 236h-83c13 18 24 38 34 57 18-18 35-36 49-57z m-175 280c71 0 129-58 129-130 0-50-69-153-115-213-5 1-9 2-14 2-5 0-9-1-14-2-46 60-115 163-115 213 0 72 58 130 129 130z m-156-103c0 0 0 0 1 0-2-9-3-18-3-27 0-38 30-94 62-146 0-1 1-3 1-4h-123c17 116 44 177 62 177z m-91-177h-113c36 87 93 150 159 170-21-37-36-100-46-170z m-14-236c1-55 4-118 11-178h-120c-18 54-29 114-30 178h139z m-139 29c1 65 12 125 30 178h120c-7-60-10-123-11-178h-139z m116 362c-43-36-80-90-105-155h-99c48 72 120 126 204 155z m-220-184h105c-18-54-29-114-30-178h-125c2 65 21 125 50 178z m-50-207h125c1-64 12-124 30-178h-105c-29 54-48 114-50 178z m66-206h99c25-66 62-119 105-156-84 29-156 83-204 156z m128 0h113c10-71 25-134 46-171-66 20-123 83-159 171z m204-178c-18 0-45 61-62 178h123c-17-117-44-178-61-178z m90 178h113c-36-88-93-151-159-171 21 37 36 100 46 171z m37-156c43 37 80 90 106 156h98c-48-73-120-127-204-156z m220 184h-105c18 54 29 114 30 178h125c-2-64-21-124-50-178z m-191 494c43 0 79 36 79 79s-36 79-79 79-79-35-79-79 35-79 79-79z m0 130c28 0 50-23 50-51 0-27-22-50-50-50-28 0-50 23-50 50 0 28 22 51 50 51z" horiz-adv-x="1000" />
<glyph glyph-name="02" unicode="&#xe849;" d="m907 574c-14 15-34 23-54 23h-379v22c0 21-8 40-22 55-15 15-34 23-55 23h-242c-21 0-40-8-55-23-15-15-23-34-23-55v-186-34-338c0-21 8-41 23-55 15-15 34-23 55-23h698c20 0 40 8 54 23 15 14 23 34 23 55v338 34 87c0 20-8 40-23 54z m-787 80c9 9 22 14 35 14h242c13 0 25-5 34-14 10-10 15-22 15-35v-36c0-8 6-15 14-15h393c13 0 25-5 34-14 9-9 15-21 15-34v-28c-14 11-31 19-49 19h-698c-19 0-35-8-49-19v127c0 13 5 25 14 35z m782-241h-796v20c0 13 5 25 14 35 9 9 22 14 35 14h698c13 0 25-5 34-14 9-10 15-22 15-35v-20z m-15-387c-9-9-21-14-34-14h-698c-13 0-26 5-35 14-9 9-14 22-14 35v323h796v-323c0-13-6-26-15-35z" horiz-adv-x="1000" />
<glyph glyph-name="01" unicode="&#xe84a;" d="m902 531c-14 13-32 21-52 21h-135v76c0 33-13 64-36 88-24 23-55 36-88 36h-189c-33 0-64-13-88-36-23-24-36-55-36-88v-76h-135c-20 0-38-8-52-21-14-14-21-32-21-52v-113-55-278c0-20 7-38 21-52 14-14 32-21 52-21h707c20 0 38 7 52 21 13 14 21 32 21 52v278 55 113c0 20-8 38-21 52z m-596 97c0 25 10 49 28 68 19 18 43 28 68 28h189c25 0 49-10 67-28 18-19 28-43 28-68v-76h-43v59c0 20-8 40-23 55-14 14-34 22-54 22h-139c-21 0-40-8-55-22-14-15-22-35-22-55v-59h-44v76z m72-76v59c0 13 5 25 15 34 9 10 21 15 34 15h139c13 0 25-5 34-15 9-9 14-21 14-34v-59h-236z m-279-73c0 12 4 23 13 31 8 9 19 13 31 13h707c12 0 23-4 31-13 9-8 13-19 13-31v-113-44l-298-98c-1 7-4 14-10 19-8 8-18 12-29 12h-121c-11 0-22-4-29-12-6-5-9-12-11-19l-297 98v44 113z m471-265v-41c0-4-2-7-4-9-3-4-7-4-9-4h-121c-2 0-6 0-9 4-3 2-4 5-4 9v41c0 3 1 6 4 9 3 3 7 4 9 4h121c3 0 6-2 9-4 2-3 4-6 4-9z m311-213c-8-8-19-13-31-13h-707c-12 0-23 5-31 13-9 9-13 20-13 32v259l295-98v-21c0-11 5-22 13-30 7-8 18-12 29-12h121c11 0 21 4 29 12 8 8 12 19 12 30v21l296 98v-259c0-12-4-23-13-32z" horiz-adv-x="1000" />
<glyph glyph-name="21" unicode="&#xe84b;" d="m964 649c-2 5-5 9-10 10l-87 26-34 33c-1 1-2 1-3 2l-22 91c-1 5-5 9-10 11-5 1-10 0-14-4l-116-116c-58 31-124 50-195 50-235 0-427-192-427-428s192-427 427-427c236 0 428 192 428 427 0 73-20 140-52 200l111 111c4 4 5 9 4 14z m-516-316l35-34c3-3 7-5 10-5 4 0 8 2 10 5l40 39c1-4 2-9 2-14 0-39-32-72-72-72-39 0-72 33-72 72 0 40 33 72 72 72 6 0 10-1 15-2l-40-40c-5-6-5-15 0-21z m63 83c-12 5-24 9-38 9-55 0-100-45-100-101 0-55 45-100 100-100 56 0 101 45 101 100 0 14-4 25-9 36l60 60c18-27 29-60 29-96 0-99-81-181-181-181-99 0-181 82-181 181s82 181 181 181c36 0 69-12 97-30l-59-59z m80 80c-34 24-74 38-118 38-115 0-209-94-209-210s94-209 209-209c116 0 210 94 210 209 0 44-14 84-37 117l57 57c37-49 60-108 60-173 0-160-130-290-290-290s-290 130-290 290c0 159 131 289 290 289 66 0 126-23 175-61l-57-57z m247 177l-345-344-14 15 344 344 15-15z m-52 107l16-66-104-104-15 66 103 104z m-313-854c-220 0-399 179-399 398 0 220 179 399 399 399 66 0 126-17 180-45 0-1 0-1 0-1l23-96-8-7c-54 42-121 69-195 69-175 0-318-143-318-318 0-176 143-319 318-319s319 143 319 319c0 73-27 139-69 193l11 11 85-25c1 0 2-1 4-1 1 0 2 2 3 2 29-54 46-115 46-181 0-219-179-398-399-398z m345 608l-59 18 104 104 60-18-105-104z" horiz-adv-x="1000" />
<glyph glyph-name="41" unicode="&#xe84c;" d="m789 389h-587c-8 0-15-6-15-14v-330c0-8 7-15 15-15h587c8 0 14 7 14 15v330c0 8-6 14-14 14z m-15-330h-558v301h558v-301z m132-54h-46v269c38 30 62 74 62 126 0 89-72 162-162 162-3 0-7 0-10 0 0 2 0 5 0 8 0 139-113 252-252 252-120 0-222-84-246-200-102-5-184-89-184-192 0-56 24-104 62-139v-286h-46c-8 0-14-7-14-15v-14c0-20 8-40 22-54 15-15 35-23 55-23h696c21 0 40 8 55 23 14 14 22 34 22 54v14c0 8-6 15-14 15z m-809 425c0 90 73 163 163 163 0 0 3 0 4 0 7 0 13 5 14 12 17 109 110 188 220 188 123 0 224-100 224-223 0-5-1-10-2-15l-1-9c0-4 1-9 5-12 3-3 7-4 12-3 9 1 17 2 24 2 74 0 134-60 134-133 0-34-13-64-34-87v55c0 21-8 40-22 55-15 14-35 22-55 22h-576c-20 0-40-8-54-22-15-15-23-34-23-55v-36c-21 27-33 61-33 98z m62-62c0 13 5 25 14 34 9 10 21 15 34 15h576c13 0 25-5 34-15 9-9 15-21 15-34v-363h-673v363z m733-392c0-13-6-25-15-34-9-9-21-14-34-14h-696c-13 0-25 5-34 14-9 9-14 21-14 34m328 173c4-3 10-3 14-1l26 12 33-72c2-5 7-8 13-8 2 0 4 0 6 1l45 21c7 3 10 12 7 19l-34 72 26 11c4 2 7 7 8 11 1 5-1 10-5 13l-124 108c-4 4-10 5-16 3-5-3-8-8-8-14l3-164c0-5 2-10 6-12z m104 72l-19-9c-7-3-10-11-7-19l34-71-19-9-34 72c-1 3-4 6-8 7-1 1-3 1-5 1-2 0-4 0-6-1l-18-9-2 111 84-73z" horiz-adv-x="1000" />
<glyph glyph-name="53" unicode="&#xe84d;" d="m775 719h-560c-8 0-15-6-15-14v-59c0-8 7-14 15-14h22v-648c0-8 6-15 14-15h209 66 212c8 0 15 7 15 15v648h22c8 0 14 6 14 14v59c0 8-6 14-14 14z m-300-721v140h36v-140h-36z m249 0h-184v154c0 8-6 14-14 14h-66c-8 0-14-6-14-14v-154h-180v634h458v-634z m37 662h-23-487-22v31h532v-31z m-425-191h65c8 0 14 6 14 14v78c0 8-6 14-14 14h-65c-8 0-15-6-15-14v-78c0-8 7-14 15-14z m14 78h36v-50h-36v50z m110-78h66c8 0 14 6 14 14v78c0 8-6 14-14 14h-66c-8 0-14-6-14-14v-78c0-8 6-14 14-14z m15 78h36v-50h-36v50z m110-78h65c8 0 15 6 15 14v78c0 8-7 14-15 14h-65c-8 0-14-6-14-14v-78c0-8 6-14 14-14z m15 78h36v-50h-36v50z m-264-215h65c8 0 14 7 14 15v78c0 8-6 14-14 14h-65c-8 0-15-6-15-14v-78c0-8 7-15 15-15z m14 78h36v-49h-36v49z m110-78h66c8 0 14 7 14 15v78c0 8-6 14-14 14h-66c-8 0-14-6-14-14v-78c0-8 6-15 14-15z m15 78h36v-49h-36v49z m110-78h65c8 0 15 7 15 15v78c0 8-7 14-15 14h-65c-8 0-14-6-14-14v-78c0-8 6-15 14-15z m15 78h36v-49h-36v49z m-264-214h65c8 0 14 7 14 14v78c0 8-6 15-14 15h-65c-8 0-15-7-15-15v-78c0-7 7-14 15-14z m14 78h36v-49h-36v49z m110-78h66c8 0 14 7 14 14v78c0 8-6 15-14 15h-66c-8 0-14-7-14-15v-78c0-7 6-14 14-14z m15 78h36v-49h-36v49z m110-78h65c8 0 15 7 15 14v78c0 8-7 15-15 15h-65c-8 0-14-7-14-15v-78c0-7 6-14 14-14z m15 78h36v-49h-36v49z m-264-214h65c8 0 14 6 14 14v78c0 8-6 14-14 14h-65c-8 0-15-6-15-14v-78c0-8 7-14 15-14z m14 78h36v-49h-36v49z m235-78h65c8 0 15 6 15 14v78c0 8-7 14-15 14h-65c-8 0-14-6-14-14v-78c0-8 6-14 14-14z m15 78h36v-49h-36v49z" horiz-adv-x="1000" />
</font>
</defs>
</svg>
